Статистика раздачи
Размер:  10,51 GB   |    Зарегистрирован:  5 месяцев 17 дней   |    Скачан:  0 раз
DL-List: Нет

Полного источника не было: Никогда

 
     
 
 

Гость

Пол:
Не указан
Стаж:
50 лет

Юркины рассветы (4 серии)
Жанр: Киноповесть
Год выпуска: 1975
Продолжительность: 251 мин.
Режиссёр: Николай Ильинский
В ролях: Валерий Рыжаков, Светлана Тормахова, Нина Сазонова, Николай Тимофеев, Георгий Куликов, Михаил Голубович, Лариса Леонова, Василий Яковлев, Геннадий Корольков, Алексей Пуршев, Леонид Марченко, Алексей Мороз, Людмила Сосюра, Галина Долгозвяга, Ирина Калиновская, Надежда Самсонова, Иван Краско, Игорь Козлов, Владимир Габаев и др.
Описание: «Юркины рассветы» - советский художественный четырёхсерийный фильм 1975 года.
История о трудовых буднях и проблемах сельской молодёжи, о любви секретаря комсомольской организации украинского колхоза Юры Хмеля и односельчанки Жени.
Доп. информация: запись с канала Культура
Семпл: https://yadi.sk/i/LvuNRRi5VdF7JA
Качество видео: DVB
Формат видео: MPEG-TS
Видео: MPEG Video, 720x576 (16:9), 25,000 кадров/сек, ~5700 Кбит/сек
Аудио: MPEG Audio, 48,0 КГц, 192 Кбит/сек, 2 канала

MediaInfo

Общее
Идентификатор : 1 (0x1)
Полное имя : H:\Юркины рассветы (Культура)\юркины рассветы 3серия(Культура).ts
Формат : MPEG-TS
Размер файла : 2,58 Гбайт
Продолжительность : 58 м. 51 с.
Режим общего битрейта : Переменный
Общий поток : 6277 Кбит/сек
Видео
Идентификатор : 1001 (0x3E9)
Идентификатор меню : 1 (0x1)
Формат : MPEG Video
Версия формата : Version 2
Профиль формата : Main@Main
Настройки формата : CustomMatrix / BVOP
Параметр BVOP формата : Да
Параметр матрицы формата : Выборочная
Параметр GOP формата : Variable
Структура изображения : Frame
Идентификатор кодека : 2
Продолжительность : 58 м. 51 с.
Вид битрейта : Переменный
Битрейт : 5773 Кбит/сек
Максимальный битрейт : 15,0 Мбит/сек
Ширина : 720 пикселей
Высота : 576 пикселей
Соотношение сторон : 16:9
Частота кадров : 25,000 кадров/сек
Стандарт вещания : PAL
Цветовое пространство : YUV
Субдискретизация насыщенности : 4:2:0
Битовая глубина : 8 бит
Тип развёртки : Чересстрочная
Порядок развёртки : Верхнее поле первое
Метод сжатия : С потерями
Бит/(Пиксели*Кадры) : 0.557
Временной код первого кадра : 00:00:00:00
Оригинал временного кода : Group of pictures header
GOP, открыто/закрыто : Открыто
GOP, открыто/закрыто на первом кадре : Закрыто
Размер потока : 2,37 Гбайт (92%)
Аудио
Идентификатор : 1002 (0x3EA)
Идентификатор меню : 1 (0x1)
Формат : MPEG Audio
Версия формата : Version 1
Профиль формата : Layer 2
Идентификатор кодека : 3
Продолжительность : 58 м. 51 с.
Вид битрейта : Постоянный
Битрейт : 192 Кбит/сек
Каналы : 2 канала
Частота : 48,0 КГц
Частота кадров : 41,667 кадра/сек (1152 SPF)
Метод сжатия : С потерями
Задержка видео : 2 мс.
Размер потока : 80,8 Мбайт (3%)
Язык : Russian

Скриншоты

[relizov.net].t9361.torrent 
Торрент: Зарегистрирован [ 2019-12-15 07:18 ] · C642E8176EDB21A23BCBB160F026653D952C73A9

Скачать .torrent

Скачать

27 KB

Статус: проверено
Скачан: 0 раз
Размер: 10,51 GB  ·  Тип торрента
terms.php
Профиль [ЛС]
Показать сообщения:    

Текущее время: 01-Июн 17:06

Часовой пояс: UTC ± 0



Вы не можете начинать темы
Вы не можете отвечать на сообщения
Вы не можете редактировать свои сообщения
Вы не можете удалять свои сообщения
Вы не можете голосовать в опросах
Вы не можете прикреплять файлы к сообщениям
Вы можете скачивать файлы