Статистика раздачи
Размер:  45,69 GB   |    Зарегистрирован:  3 месяца 11 дней   |    Скачан:  0 раз
DL-List: Нет

Полного источника не было: Никогда

 
     
 
 

MAGNAT ®

Пол:
Мужской
Стаж:
1 год 3 месяца
Сообщений:
8784

Игла
Страна: СССР
Студия: Студия Казахфильм
Жанр: драма
Год выпуска: 1988
Продолжительность: 01:16:50
Перевод: Не требуется
Субтитры: английские, французские, немецкие, испанские, корейские
Оригинальная аудиодорожка: русский
Режиссёр: Рашид Нугманов
В ролях: Виктор Цой, Марина Смирнова, Петр Мамонов, Александр Баширов, Архимед Искаков, Геннадий Люй, Александр Конкс, Рахимжан Абдыкадыров, Райхан Канатбаев, Айхан Чатаева, Владимир Даниленко

Описание: Моро приезжает в родной город, чтобы получить старый долг и останавливается у своей подруги, с которой давно расстался. Наблюдая за ее странными знакомыми, Моро понимает, что Дина стала наркоманкой. Моро увозит девушку к морю, где Дина начинает выздоравливать. Однако после возвращения в город все начинается сначала. Моро решает расправиться с поставщиками наркотиков.

Sample
Тип релиза: Blu-ray Disc
Контейнер: BDMV
Видео: MPEG4 AVC Video, H264, 1920x1080, 25 fps, 23813 kbps
Аудио: Russian (DTS-HD MA, 2 ch, 1586 kbps, 16 bits, 48.0 KHz / DTS core: 2 ch, 1509 kbps, 16 bits, 48.0 KHz) - оригинал
Формат субтитров: prerendered (Blu-ray/PGS/SUP)---Игла Remix
Страна: Россия
Студия: ООО "Титан"
Жанр: триллер, драма
Год выпуска: 2010
Продолжительность: 01:26:32
Перевод: Не требуется
Субтитры: французские
Оригинальная аудиодорожка: русский
Режиссёр: Рашид Нугманов
В ролях: Виктор Цой, Александр Баширов, Петр Мамонов, Марина Смирнова, Геннадий Люй, Архимед Искаков, Георгий Гурьянов, Дмитрий Мишенин, Светлана Нагаева, Роберт Цой

Описание: Герой Цоя, Моро, возвращается в родную Алма-Ату за денежным долгом мошенника Спартака и останавливается у своей подруги, с которой давно расстался. Старая любовь вернулась, но Дина удивляет его своим странным поведением и подозрительными знакомыми. Оказывается, она стала наркоманкой, и ее квартира превратилась в притон. Моро увозит ее к Аральскому морю, изолирует от окружающего мира и помогает избавиться от наркотической зависимости. Дина поправляется, но по возвращении в город поставщик наркотиков, хирург Артур, организует охоту за непокорными. Стоящая за ним преступная группировка принимает решение вновь посадить Дину на иглу и убить Моро.

Sample
Тип релиза: Blu-ray Disc
Контейнер: BDMV
Видео: MPEG4 AVC Video, H264, 1920x1080, 25 fps, 23644 kbps
Аудио: Russian (DTS-HD MA, 6 ch, 2694 kbps, 16 bits, 48.0 KHz / DTS core: 6 ch, 1509 kbps, 16 bits, 48.0 KHz) - оригинал
Аудио 2: Russian (DTS-HD MA, 2 ch, 1698 kbps, 16 bits, 48.0 KHz / DTS core: 2 ch, 1509 kbps, 16 bits, 48.0 KHz) - оригинал
Формат субтитров: prerendered (Blu-ray/PGS/SUP)

Дополнительно на диске

1. "Yahha", un court métrage du réalisateur Rachid Nougmanov (35:54) - на русском + французские субтитры(хардсаб)
2. "Souvenirs de vague", un documentaire d'Eugénie Zvonkine (44:24) - на русском + французские субтитры(хардсаб)
3. Présentation du film "L'Aiguille" (12:57) - на французском без каких либо субтитров
4. Трейлеры.

BDInfo Игла

Disc Title: L AIGUILLE
Disc Size: 49 062 336 121 bytes
Protection: AACS
BD-Java: No
Extras: 50Hz Content
BDInfo: 0.5.8
Notes:
BDINFO HOME:
Cinema Squid
http://www.cinemasquid.com/blu-ray/tools/bdinfo
INCLUDES FORUMS REPORT FOR:
AVS Forum Blu-ray Audio and Video Specifications Thread
http://www.avsforum.com/avs-vb/showthread.php?t=1155731
********************
PLAYLIST: 00003.MPLS
********************
<--- BEGIN FORUMS PASTE --->
Код:
Total Video
Title Codec Length Movie Size Disc Size Bitrate Bitrate Main Audio Track Secondary Audio Track
----- ------ ------- -------------- -------------- ------- ------- ------------------ ---------------------
00003.MPLS AVC 1:16:50 15 494 928 384 49 062 336 121 26,89 23,81 DTS-HD Master 2.0 1586Kbps (48kHz/16-bit)
Код:
DISC INFO:
Disc Title: L AIGUILLE
Disc Size: 49 062 336 121 bytes
Protection: AACS
BD-Java: No
Extras: 50Hz Content
BDInfo: 0.5.8
PLAYLIST REPORT:
Name: 00003.MPLS
Length: 1:16:50.040 (h:m:s.ms)
Size: 15 494 928 384 bytes
Total Bitrate: 26,89 Mbps
VIDEO:
Codec Bitrate Description
----- ------- -----------
MPEG-4 AVC Video 23813 kbps 1080i / 25 fps / 16:9 / High Profile 4.1
AUDIO:
Codec Language Bitrate Description
----- -------- ------- -----------
DTS-HD Master Audio Russian 1586 kbps 2.0 / 48 kHz / 1586 kbps / 16-bit (DTS Core: 2.0 / 48 kHz / 1509 kbps / 16-bit)
SUBTITLES:
Codec Language Bitrate Description
----- -------- ------- -----------
Presentation Graphics French 11,675 kbps
Presentation Graphics English 13,502 kbps
Presentation Graphics Spanish 11,475 kbps
Presentation Graphics German 11,850 kbps
Presentation Graphics Korean 9,509 kbps
FILES:
Name Time In Length Size Total Bitrate
---- ------- ------ ---- -------------
00017.M2TS 0:00:00.000 1:16:49.040 15 494 897 664 26 895
00000.M2TS 1:16:49.040 0:00:01.000 30 720 246
CHAPTERS:
Number Time In Length Avg Video Rate Max 1-Sec Rate Max 1-Sec Time Max 5-Sec Rate Max 5-Sec Time Max 10Sec Rate Max 10Sec Time Avg Frame Size Max Frame Size Max Frame Time
------ ------- ------ -------------- -------------- -------------- -------------- -------------- -------------- -------------- -------------- -------------- --------------
1 0:00:00.000 0:07:14.919 19 553 kbps 47 405 kbps 00:02:21.199 40 716 kbps 00:02:20.239 38 361 kbps 00:02:20.239 97 756 bytes 387 757 bytes 00:04:18.040
2 0:07:14.919 0:07:23.599 25 407 kbps 50 087 kbps 00:10:48.599 41 814 kbps 00:10:44.360 38 840 kbps 00:10:39.839 127 036 bytes 455 536 bytes 00:10:45.480
3 0:14:38.519 0:07:29.240 24 994 kbps 49 783 kbps 00:19:53.400 42 053 kbps 00:18:49.720 38 785 kbps 00:18:44.559 124 972 bytes 512 618 bytes 00:17:58.120
4 0:22:07.760 0:12:08.599 15 747 kbps 34 174 kbps 00:34:13.400 26 444 kbps 00:23:20.639 25 148 kbps 00:23:17.360 78 737 bytes 364 072 bytes 00:23:50.959
5 0:34:16.360 0:12:52.440 20 151 kbps 54 058 kbps 00:38:39.400 42 110 kbps 00:38:02.319 38 180 kbps 00:45:25.799 100 756 bytes 469 840 bytes 00:41:43.279
6 0:47:08.800 0:08:30.000 25 784 kbps 51 728 kbps 00:55:08.160 40 056 kbps 00:55:07.879 39 523 kbps 00:49:13.720 128 918 bytes 470 528 bytes 00:48:00.160
7 0:55:38.800 0:09:29.279 33 503 kbps 53 266 kbps 00:55:45.919 42 681 kbps 00:55:45.319 39 165 kbps 00:55:45.159 167 515 bytes 571 565 bytes 00:55:53.199
8 1:05:08.080 0:07:39.639 31 070 kbps 45 922 kbps 01:11:51.519 40 633 kbps 01:11:51.120 37 391 kbps 01:11:47.879 155 352 bytes 410 027 bytes 01:09:17.559
9 1:12:47.720 0:04:02.319 21 598 kbps 44 303 kbps 01:15:01.040 42 185 kbps 01:14:58.160 39 694 kbps 01:14:56.879 108 010 bytes 477 406 bytes 01:15:47.360
STREAM DIAGNOSTICS:
File PID Type Codec Language Seconds Bitrate Bytes Packets
---- --- ---- ----- -------- -------------- -------------- ------------- -----
00017.M2TS 4113 (0x1011) 0x1B AVC 4608,880 23 819 13 722 424 151 74 645 692
00017.M2TS 4352 (0x1100) 0x86 DTS-HD MA rus (Russian) 4608,880 1 587 914 015 808 5 704 004
00017.M2TS 4608 (0x1200) 0x90 PGS fra (French) 4608,880 12 6 727 960 39 892
00017.M2TS 4609 (0x1201) 0x90 PGS eng (English) 4608,880 14 7 780 312 45 720
00017.M2TS 4610 (0x1202) 0x90 PGS spa (Spanish) 4608,880 11 6 612 455 39 287
00017.M2TS 4611 (0x1203) 0x90 PGS deu (German) 4608,880 12 6 828 866 40 451
00017.M2TS 4612 (0x1204) 0x90 PGS kor (Korean) 4608,880 10 5 479 561 33 123
00000.M2TS 4113 (0x1011) 0x1B AVC 0,840 136 14 269 97
<---- END FORUMS PASTE ---->
QUICK SUMMARY:
Disc Title: L AIGUILLE
Disc Size: 49 062 336 121 bytes
Protection: AACS
BD-Java: No
Playlist: 00003.MPLS
Size: 15 494 928 384 bytes
Length: 1:16:50.040
Total Bitrate: 26,89 Mbps
Video: MPEG-4 AVC Video / 23813 kbps / 1080i / 25 fps / 16:9 / High Profile 4.1
Audio: Russian / DTS-HD Master Audio / 2.0 / 48 kHz / 1586 kbps / 16-bit (DTS Core: 2.0 / 48 kHz / 1509 kbps / 16-bit)
Subtitle: French / 11,675 kbps
Subtitle: English / 13,502 kbps
Subtitle: Spanish / 11,475 kbps
Subtitle: German / 11,850 kbps
Subtitle: Korean / 9,509 kbps

BDInfo Игла Remix

Disc Title: L AIGUILLE
Disc Size: 49 062 336 121 bytes
Protection: AACS
BD-Java: No
Extras: 50Hz Content
BDInfo: 0.5.8
Notes:
BDINFO HOME:
Cinema Squid
http://www.cinemasquid.com/blu-ray/tools/bdinfo
INCLUDES FORUMS REPORT FOR:
AVS Forum Blu-ray Audio and Video Specifications Thread
http://www.avsforum.com/avs-vb/showthread.php?t=1155731
********************
PLAYLIST: 00005.MPLS
********************
<--- BEGIN FORUMS PASTE --->
Total   Video
Title                                                           Codec   Length  Movie Size      Disc Size       Bitrate Bitrate Main Audio Track                          Secondary Audio Track
-----                                                           ------  ------- --------------  --------------  ------- ------- ------------------                        ---------------------
00005.MPLS                                                      AVC     1:26:32 19 359 000 576  49 062 336 121  29,83   23,64   DTS-HD Master 5.1 2694Kbps (48kHz/16-bit) DTS-HD Master 2.0 1698Kbps (48kHz/16-bit)
Код:
DISC INFO:
Disc Title: L AIGUILLE
Disc Size: 49 062 336 121 bytes
Protection: AACS
BD-Java: No
Extras: 50Hz Content
BDInfo: 0.5.8
PLAYLIST REPORT:
Name: 00005.MPLS
Length: 1:26:32.320 (h:m:s.ms)
Size: 19 359 000 576 bytes
Total Bitrate: 29,83 Mbps
VIDEO:
Codec Bitrate Description
----- ------- -----------
MPEG-4 AVC Video 23644 kbps 1080i / 25 fps / 16:9 / High Profile 4.1
AUDIO:
Codec Language Bitrate Description
----- -------- ------- -----------
DTS-HD Master Audio Russian 2694 kbps 5.1 / 48 kHz / 2694 kbps / 16-bit (DTS Core: 5.1 / 48 kHz / 1509 kbps / 16-bit)
DTS-HD Master Audio Russian 1698 kbps 2.0 / 48 kHz / 1698 kbps / 16-bit (DTS Core: 2.0 / 48 kHz / 1509 kbps / 16-bit)
SUBTITLES:
Codec Language Bitrate Description
----- -------- ------- -----------
Presentation Graphics French 16,710 kbps
FILES:
Name Time In Length Size Total Bitrate
---- ------- ------ ---- -------------
00018.M2TS 0:00:00.000 1:26:31.320 19 358 969 856 29 833
00000.M2TS 1:26:31.320 0:00:01.000 30 720 246
CHAPTERS:
Number Time In Length Avg Video Rate Max 1-Sec Rate Max 1-Sec Time Max 5-Sec Rate Max 5-Sec Time Max 10Sec Rate Max 10Sec Time Avg Frame Size Max Frame Size Max Frame Time
------ ------- ------ -------------- -------------- -------------- -------------- -------------- -------------- -------------- -------------- -------------- --------------
1 0:00:00.000 0:15:37.639 20 759 kbps 52 023 kbps 00:14:08.919 39 092 kbps 00:09:40.120 35 847 kbps 00:14:07.599 103 791 bytes 809 280 bytes 00:09:36.400
2 0:15:37.639 0:06:45.959 25 604 kbps 46 444 kbps 00:18:24.800 38 465 kbps 00:16:23.120 34 861 kbps 00:16:18.440 128 020 bytes 530 288 bytes 00:15:56.279
3 0:22:23.599 0:06:38.400 26 268 kbps 48 321 kbps 00:24:37.519 37 970 kbps 00:24:33.599 35 821 kbps 00:24:31.760 131 341 bytes 627 537 bytes 00:26:09.839
4 0:29:02.000 0:11:29.639 17 375 kbps 46 103 kbps 00:33:36.480 34 854 kbps 00:36:32.760 29 887 kbps 00:30:07.159 86 876 bytes 941 802 bytes 00:35:55.080
5 0:40:31.639 0:10:02.840 27 629 kbps 47 039 kbps 00:44:51.800 37 973 kbps 00:40:48.879 35 926 kbps 00:40:47.839 138 145 bytes 581 930 bytes 00:44:52.800
6 0:50:34.480 0:07:36.239 27 466 kbps 44 275 kbps 00:50:44.120 38 869 kbps 00:50:40.720 35 421 kbps 00:56:49.760 137 330 bytes 681 262 bytes 00:50:42.800
7 0:58:10.720 0:14:12.199 26 311 kbps 51 653 kbps 01:03:18.919 38 521 kbps 01:09:17.519 36 028 kbps 01:09:16.680 131 554 bytes 685 309 bytes 01:03:18.959
8 1:12:22.919 0:09:05.080 26 975 kbps 46 736 kbps 01:15:39.160 37 457 kbps 01:15:39.040 35 218 kbps 01:15:39.040 134 875 bytes 884 538 bytes 01:14:08.839
9 1:21:28.000 0:05:04.319 13 637 kbps 35 997 kbps 01:21:44.599 32 242 kbps 01:21:44.599 30 857 kbps 01:21:28.080 68 194 bytes 327 032 bytes 01:21:48.279
STREAM DIAGNOSTICS:
File PID Type Codec Language Seconds Bitrate Bytes Packets
---- --- ---- ----- -------- -------------- -------------- ------------- -----
00018.M2TS 4113 (0x1011) 0x1B AVC 5191,200 23 649 15 346 140 561 83 478 921
00018.M2TS 4352 (0x1100) 0x86 DTS-HD MA rus (Russian) 5191,200 2 694 1 748 448 040 10 310 600
00018.M2TS 4353 (0x1101) 0x86 DTS-HD MA rus (Russian) 5191,200 1 699 1 102 390 392 6 800 530
00018.M2TS 4608 (0x1200) 0x90 PGS fra (French) 5191,200 17 10 845 609 63 967
00000.M2TS 4113 (0x1011) 0x1B AVC 0,840 136 14 269 97
<---- END FORUMS PASTE ---->
QUICK SUMMARY:
Disc Title: L AIGUILLE
Disc Size: 49 062 336 121 bytes
Protection: AACS
BD-Java: No
Playlist: 00005.MPLS
Size: 19 359 000 576 bytes
Length: 1:26:32.320
Total Bitrate: 29,83 Mbps
Video: MPEG-4 AVC Video / 23644 kbps / 1080i / 25 fps / 16:9 / High Profile 4.1
Audio: Russian / DTS-HD Master Audio / 5.1 / 48 kHz / 2694 kbps / 16-bit (DTS Core: 5.1 / 48 kHz / 1509 kbps / 16-bit)
Audio: Russian / DTS-HD Master Audio / 2.0 / 48 kHz / 1698 kbps / 16-bit (DTS Core: 2.0 / 48 kHz / 1509 kbps / 16-bit)
Subtitle: French / 16,710 kbps

Скриншоты

Игла 1988


Игла Remix 2010


Доп. материалы

[relizov.net].t14579.torrent 
Торрент: Зарегистрирован [ 2020-04-01 19:48 ] · 5E22BD76C13ED38EC6CC7ADEAFA93F768D55C204

Скачать .torrent

Скачать

234 KB

Статус: проверено
Скачан: 0 раз
Размер: 45,69 GB  ·  Тип торрента
terms.php
Профиль [ЛС]
Показать сообщения:    

Текущее время: 13-Июл 08:34

Часовой пояс: UTC ± 0



Вы не можете начинать темы
Вы не можете отвечать на сообщения
Вы не можете редактировать свои сообщения
Вы не можете удалять свои сообщения
Вы не можете голосовать в опросах
Вы не можете прикреплять файлы к сообщениям
Вы можете скачивать файлы