Статистика раздачи
Размер:  1,46 GB   |    Зарегистрирован:  3 месяца 3 дня   |    Скачан:  0 раз
DL-List: Нет

Полного источника не было: Никогда

 
     
 
 

MAGNAT ®

Пол:
Мужской
Стаж:
1 год 3 месяца
Сообщений:
8784

Иван Царевич и Серый Волк 4- Год выхода: 2019
Выпущено: Россия
Жанр: мультфильм, приключения, семейный
Продолжительность: 01:28:23
Перевод: Не требуется
Субтитры: нет-Режиссер:
Дарина Шмидт-В ролях:
Никита Ефремов, Иван Охлобыстин, Михаил Боярский, Равшана Куркова, Сергей Волчков, Мария Цветкова-Овсянникова, Александр Боярский, Олег Куликович, Анатолий Петров, Михаил Хрусталёв-О фильме:
Зима в этом году в тридевятом царстве случилась особенно долгая и холодная. Прямо, как в прошлом году. И как в позапрошлом. Но, вот, пришла весна. Точнее — почти пришла. С вьюгой, морозами и снегом. Как обычно. И совсем было загрустили наши герои — Иван, Василиса, Серый Волк и Царь-батюшка, если бы вместе с почти-весной, не пришла новость — в Трисемнадцатом царстве пройдет ежегодный всесказочный конкурс песни. В прошлом году там победил хомяк Жорж, а чей голос окажется круче на этот раз? Царь решил, что Тридевятое царство будет представлять Кот-ученый. Не один все же мультфильм прошли вместе, да и все равно он про книги забыл, орет, точнее поет целыми днями на крышах, как и положено коту в марте. И, конечно, вся компания во главе с Иваном и Волком отправляется поддержать пушистого певца. Ведь свои нужны рядом. А то шоу-бизнес — настоящий серпентарий, и кто знает, какие темные силы стоят за коварными соперниками и их стремлением стать звездой.-Качество: WEB-DLRip
Формат: AVI
Видео: 720x400 (1.80:1), 23.976 fps, XviD build 67 ~2162 kbps avg, 0.31 bit/pixel
Аудио: 48 kHz, AC3 Dolby Digital, 2/0 (L,R) ch, ~192 kbps avg-

Скриншоты

-

MediaInfo

Код:Общее
Полное имя : D:\Ivan_Carevich_i_seryi_volk_4_2019_WEB-DLRip_by_Dalemake.avi
Формат : AVI
Формат/Информация : Audio Video Interleave
Размер файла : 1,46 Гбайт
Продолжительность : 1 ч. 28 м.
Общий поток : 2364 Кбит/сек
Программа кодирования : VirtualDubMod 1.5.10.3 | www.virtualdub-fr.org || (build 2550/release)
Библиотека кодирования : VirtualDubMod build 2550/release
Видео
Идентификатор : 0
Формат : MPEG-4 Visual
Профиль формата : Advanced Simple@L5
Настройки формата : BVOP2 / Custom Matrix
Параметр BVOP формата : 2
Параметр QPel формата : Нет
Параметр GMC формата : Без точки перехода
Параметр матрицы формата : Выборочная
Идентификатор кодека : XVID
Идентификатор кодека/Подсказка : XviD
Продолжительность : 1 ч. 28 м.
Битрейт : 2162 Кбит/сек
Ширина : 720 пикселей
Высота : 400 пикселей
Соотношение сторон : 16:9
Частота кадров : 23,976 (24000/1001) кадра/сек
Цветовое пространство : YUV
Субдискретизация насыщенности : 4:2:0
Битовая глубина : 8 бит
Тип развёртки : Прогрессивная
Метод сжатия : С потерями
Бит/(Пиксели*Кадры) : 0.313
Размер потока : 1,33 Гбайт (91%)
Библиотека кодирования : XviD 67
Аудио
Идентификатор : 1
Формат : AC-3
Формат/Информация : Audio Coding 3
Коммерческое название : Dolby Digital
Идентификатор кодека : 2000
Продолжительность : 1 ч. 28 м.
Вид битрейта : Постоянный
Битрейт : 192 Кбит/сек
Каналы : 2 канала
ChannelLayout : L R
Частота : 48,0 КГц
Частота кадров : 31,250 кадров/сек (1536 SPF)
Метод сжатия : С потерями
Размер потока : 121 Мбайт (8%)
Выравнивание : Разделение по промежуткам
Продолжительность промежутка : 42 мс. (1,00 видеокадр)
Время предзагрузки промежутка : 500 мс.
ServiceKind/String : Complete Main
-
[relizov.net].t15392.torrent 
Торрент: Зарегистрирован [ 2020-04-09 09:51 ] · 7A7BF8262699BB4A0F04DEF06B753858BFBF1A4F

Скачать .torrent

Скачать

15 KB

Статус: проверено
Скачан: 0 раз
Размер: 1,46 GB  ·  Тип торрента
terms.php
Профиль [ЛС]
Показать сообщения:    

Текущее время: 13-Июл 07:38

Часовой пояс: UTC ± 0



Вы не можете начинать темы
Вы не можете отвечать на сообщения
Вы не можете редактировать свои сообщения
Вы не можете удалять свои сообщения
Вы не можете голосовать в опросах
Вы не можете прикреплять файлы к сообщениям
Вы можете скачивать файлы