Статистика раздачи
Размер:  410 MB   |    Зарегистрирован:  3 месяца 2 дня   |    Скачан:  0 раз
DL-List: Нет

Полного источника не было: Никогда

 
     
 
 

benson26 ®

Пол:
Не указан
Стаж:
5 месяцев 14 дней
Сообщений:
257

Håkan Hellström / Nåt Gammalt, Nåt Nytt, Nåt Lånat, Nåt Blått
Жанр: Pop
Носитель: CD
Год издания: 2013
Издатель (лейбл): Parlophone
Страна исполнителя (группы): Sweden
Аудиокодек: FLAC (*.flac)
Тип рипа: image+.cue
Продолжительность: 00:55:57
Источник: собственный рип
Наличие сканов в содержимом раздачи: да
Треклист:
1. 13
2. Klubbland
3. Så länge du är med mig
4. Jag vill ha allting
5. Precis som Romeo
6. Augusti i helvetet
7. Jag hatar att jag älskar dig och jag älskar dig så mycket att jag hatar mig
8. Evert Taube
9. Fade Away
10. Går vidare
11. Gatan fram (live)
12. Fairytale of New York (live)

Лог создания рипа

Exact Audio Copy V1.3 from 2. September 2016
EAC extraction logfile from 16. January 2020, 19:21
Håkan Hellström / Nåt Gammalt, Nåt Nytt, Nåt Lånat, Nåt Blått
Used drive : SlimtypeeBAU108 6 L Adapter: 1 ID: 0
Read mode : Secure
Utilize accurate stream : Yes
Defeat audio cache : Yes
Make use of C2 pointers : No
Read offset correction : 6
Overread into Lead-In and Lead-Out : No
Fill up missing offset samples with silence : Yes
Delete leading and trailing silent blocks : No
Null samples used in CRC calculations : Yes
Used interface : Native Win32 interface for Win NT & 2000
Used output format : User Defined Encoder
Selected bitrate : 1024 kBit/s
Quality : High
Add ID3 tag : No
Command line compressor : E:\toBeShared\flac.exe
Additional command line options : -8 -V
TOC of the extracted CD
Track | Start | Length | Start sector | End sector
---------------------------------------------------------
1 | 0:00.00 | 2:52.15 | 0 | 12914
2 | 2:52.15 | 4:15.60 | 12915 | 32099
3 | 7:08.00 | 3:11.13 | 32100 | 46437
4 | 10:19.13 | 4:22.00 | 46438 | 66087
5 | 14:41.13 | 5:45.68 | 66088 | 92030
6 | 20:27.06 | 3:35.37 | 92031 | 108192
7 | 24:02.43 | 5:16.48 | 108193 | 131940
8 | 29:19.16 | 4:19.70 | 131941 | 151435
9 | 33:39.11 | 4:47.40 | 151436 | 173000
10 | 38:26.51 | 5:34.25 | 173001 | 198075
11 | 44:01.01 | 5:30.20 | 198076 | 222845
12 | 49:31.21 | 6:25.62 | 222846 | 251782
Range status and errors
Selected range
Filename E:\toBeShared\Новая папка\Håkan Hellström - Nåt Gammalt, Nåt Nytt, Nåt Lånat, Nåt Blått.wav
Peak level 97.8 %
Extraction speed 4.3 X
Range quality 100.0 %
Test CRC 6FADC715
Copy CRC 6FADC715
Copy OK
No errors occurred
AccurateRip summary
Track 1 cannot be verified as accurate (confidence 7) [33A7E7DD], AccurateRip returned [FDD6D939] (AR v2)
Track 2 cannot be verified as accurate (confidence 7) [8D653980], AccurateRip returned [B08BFF9E] (AR v2)
Track 3 cannot be verified as accurate (confidence 7) [F4825422], AccurateRip returned [65E683FE] (AR v2)
Track 4 cannot be verified as accurate (confidence 7) [25161351], AccurateRip returned [6571247C] (AR v2)
Track 5 cannot be verified as accurate (confidence 7) [53D02DD9], AccurateRip returned [F1E552C7] (AR v2)
Track 6 cannot be verified as accurate (confidence 7) [29512A1A], AccurateRip returned [752281A5] (AR v2)
Track 7 cannot be verified as accurate (confidence 7) [44863304], AccurateRip returned [35A1E28A] (AR v2)
Track 8 cannot be verified as accurate (confidence 7) [A6A099E8], AccurateRip returned [64B2B407] (AR v2)
Track 9 cannot be verified as accurate (confidence 7) [C151409E], AccurateRip returned [0666B439] (AR v2)
Track 10 cannot be verified as accurate (confidence 7) [5539D1A5], AccurateRip returned [01D21BBE] (AR v2)
Track 11 cannot be verified as accurate (confidence 7) [2ABE6B5D], AccurateRip returned [7A0417DB] (AR v2)
Track 12 cannot be verified as accurate (confidence 7) [E18D6695], AccurateRip returned [CC9EF359] (AR v2)
No tracks could be verified as accurate
You may have a different pressing from the one(s) in the database
End of status report
---- CUETools DB Plugin V2.1.6
[CTDB TOCID: _elfu6p9PWxxR0ybcmTffnM_OWQ-] found
Submit result: _elfu6p9PWxxR0ybcmTffnM_OWQ- has been confirmed
Track | CTDB Status
1 | (14/15) Accurately ripped
2 | (15/15) Accurately ripped
3 | (15/15) Accurately ripped
4 | (15/15) Accurately ripped
5 | (14/15) Accurately ripped
6 | (15/15) Accurately ripped
7 | (15/15) Accurately ripped
8 | (14/15) Accurately ripped
9 | (15/15) Accurately ripped
10 | (15/15) Accurately ripped
11 | (15/15) Accurately ripped
12 | ( 2/15) Accurately ripped
==== Log checksum FE92F04E5B845556AD51794B522A4D6351DFA2B0C9BC9A4F8D0DEF90C69DCA01 ====
------------------------------------------------------------
Exact Audio Copy V1.3 from 2. September 2016
EAC extraction logfile from 16. January 2020, 19:21
Håkan Hellström / Nåt Gammalt, Nåt Nytt, Nåt Lånat, Nåt Blått
Used drive : SlimtypeeBAU108 6 L Adapter: 1 ID: 0
Read mode : Secure
Utilize accurate stream : Yes
Defeat audio cache : Yes
Make use of C2 pointers : No
Read offset correction : 6
Overread into Lead-In and Lead-Out : No
Fill up missing offset samples with silence : Yes
Delete leading and trailing silent blocks : No
Null samples used in CRC calculations : Yes
Used interface : Native Win32 interface for Win NT & 2000
Used output format : User Defined Encoder
Selected bitrate : 1024 kBit/s
Quality : High
Add ID3 tag : No
Command line compressor : E:\toBeShared\flac.exe
Additional command line options : -8 -V
TOC of the extracted CD
Track | Start | Length | Start sector | End sector
---------------------------------------------------------
1 | 0:00.00 | 2:52.15 | 0 | 12914
2 | 2:52.15 | 4:15.60 | 12915 | 32099
3 | 7:08.00 | 3:11.13 | 32100 | 46437
4 | 10:19.13 | 4:22.00 | 46438 | 66087
5 | 14:41.13 | 5:45.68 | 66088 | 92030
6 | 20:27.06 | 3:35.37 | 92031 | 108192
7 | 24:02.43 | 5:16.48 | 108193 | 131940
8 | 29:19.16 | 4:19.70 | 131941 | 151435
9 | 33:39.11 | 4:47.40 | 151436 | 173000
10 | 38:26.51 | 5:34.25 | 173001 | 198075
11 | 44:01.01 | 5:30.20 | 198076 | 222845
12 | 49:31.21 | 6:25.62 | 222846 | 251782
Range status and errors
Selected range
Filename E:\toBeShared\Новая папка\Håkan Hellström - Nåt Gammalt, Nåt Nytt, Nåt Lånat, Nåt Blått.wav
Peak level 97.8 %
Extraction speed 4.3 X
Range quality 100.0 %
Test CRC 6FADC715
Copy CRC 6FADC715
Copy OK
No errors occurred
AccurateRip summary
Track 1 cannot be verified as accurate (confidence 7) [33A7E7DD], AccurateRip returned [FDD6D939] (AR v2)
Track 2 cannot be verified as accurate (confidence 7) [8D653980], AccurateRip returned [B08BFF9E] (AR v2)
Track 3 cannot be verified as accurate (confidence 7) [F4825422], AccurateRip returned [65E683FE] (AR v2)
Track 4 cannot be verified as accurate (confidence 7) [25161351], AccurateRip returned [6571247C] (AR v2)
Track 5 cannot be verified as accurate (confidence 7) [53D02DD9], AccurateRip returned [F1E552C7] (AR v2)
Track 6 cannot be verified as accurate (confidence 7) [29512A1A], AccurateRip returned [752281A5] (AR v2)
Track 7 cannot be verified as accurate (confidence 7) [44863304], AccurateRip returned [35A1E28A] (AR v2)
Track 8 cannot be verified as accurate (confidence 7) [A6A099E8], AccurateRip returned [64B2B407] (AR v2)
Track 9 cannot be verified as accurate (confidence 7) [C151409E], AccurateRip returned [0666B439] (AR v2)
Track 10 cannot be verified as accurate (confidence 7) [5539D1A5], AccurateRip returned [01D21BBE] (AR v2)
Track 11 cannot be verified as accurate (confidence 7) [2ABE6B5D], AccurateRip returned [7A0417DB] (AR v2)
Track 12 cannot be verified as accurate (confidence 7) [E18D6695], AccurateRip returned [CC9EF359] (AR v2)
No tracks could be verified as accurate
You may have a different pressing from the one(s) in the database
End of status report
---- CUETools DB Plugin V2.1.6
[CTDB TOCID: _elfu6p9PWxxR0ybcmTffnM_OWQ-] found
Submit result: _elfu6p9PWxxR0ybcmTffnM_OWQ- has been confirmed
Track | CTDB Status
1 | (14/15) Accurately ripped
2 | (15/15) Accurately ripped
3 | (15/15) Accurately ripped
4 | (15/15) Accurately ripped
5 | (14/15) Accurately ripped
6 | (15/15) Accurately ripped
7 | (15/15) Accurately ripped
8 | (14/15) Accurately ripped
9 | (15/15) Accurately ripped
10 | (15/15) Accurately ripped
11 | (15/15) Accurately ripped
12 | ( 2/15) Accurately ripped
==== Log checksum FE92F04E5B845556AD51794B522A4D6351DFA2B0C9BC9A4F8D0DEF90C69DCA01 ====

Содержание индексной карты (.CUE)

REM GENRE Rock
REM DATE 2006
REM DISCID 910D1D0C
REM COMMENT "ExactAudioCopy v1.3"
PERFORMER "Håkan Hellström"
TITLE "Nat Gammalt, Nat Nytt, Nat Lanat, Nat Blatt"
REM COMPOSER ""
FILE "Håkan Hellström - Nåt Gammalt, Nåt Nytt, Nåt Lånat, Nåt Blått.flac" WAVE
TRACK 01 AUDIO
TITLE "13"
PERFORMER "Håkan Hellström"
REM COMPOSER ""
INDEX 01 00:00:00
TRACK 02 AUDIO
TITLE "Klubbland"
PERFORMER "Håkan Hellström"
REM COMPOSER ""
INDEX 01 02:52:15
TRACK 03 AUDIO
TITLE "Så Länge du Är Med Mig"
PERFORMER "Håkan Hellström"
REM COMPOSER ""
INDEX 01 07:08:00
TRACK 04 AUDIO
TITLE "Jag Vill Ha Allting"
PERFORMER "Håkan Hellström"
REM COMPOSER ""
INDEX 01 10:19:13
TRACK 05 AUDIO
TITLE "Precis Som Romeo"
PERFORMER "HHåkan Hellström"
REM COMPOSER ""
INDEX 01 14:41:13
TRACK 06 AUDIO
TITLE "Augusti I Helvetet"
PERFORMER "Håkan Hellström"
REM COMPOSER ""
INDEX 01 20:27:06
TRACK 07 AUDIO
TITLE "Jag Hatar Att Jag Älskar Dig Och Jag Älskar Dig Så Mycket Att Jag Hatar Mig"
PERFORMER "Håkan Hellström"
REM COMPOSER ""
INDEX 01 24:02:43
TRACK 08 AUDIO
TITLE "Evert Taube"
PERFORMER "Håkan Hellström"
REM COMPOSER ""
INDEX 01 29:19:16
TRACK 09 AUDIO
TITLE "Fade Away"
PERFORMER "Håkan Hellström"
REM COMPOSER ""
INDEX 01 33:39:11
TRACK 10 AUDIO
TITLE "Går Vidare"
PERFORMER "Håkan Hellström"
REM COMPOSER ""
INDEX 01 38:26:51
TRACK 11 AUDIO
TITLE "Gatan Fram"
PERFORMER "Håkan Hellström"
REM COMPOSER ""
INDEX 01 44:01:01
TRACK 12 AUDIO
TITLE "Fairytale of New York"
PERFORMER "Håkan Hellström"
REM COMPOSER ""
INDEX 01 49:31:21

Об исполнителе (группе)

Подробнее об исполнителе тут: https://ru.wikipedia.org/wiki/%D0%A5%D0%B5%D0%BB%D0%BB%D1%8C%D1%81%D1%82%D1%80%D1...0%BA%D0%B0%D0%BD

Об альбоме (сборнике)

4-ый студийный альбом Хокана Хельстрёма (Håkan Hellström) выпущенный 28 декабря 2005 года. Три трека с альбома были выпущены как синглы: 13, Jag hatar att jag älskar dig och jag älskar dig så mycket att jag hatar mig, Klubbland.
Подробнее об альбоме тут: https://en.wikipedia.org/wiki/N%C3%A5t_gammalt,_n%C3%A5t_nytt,_n%C3%A5t_l%C3%A5na...3%A5t_bl%C3%A5tt
https://sv.wikipedia.org/wiki/N%C3%A5t_gammalt,_n%C3%A5t_nytt,_n%C3%A5t_l%C3%A5na...3%A5t_bl%C3%A5tt
[relizov.net].t15731.torrent 
Торрент: Зарегистрирован [ 2020-04-10 18:05 ] · 42ACFAFE0F99221126AA8E3C40425282A99F0BCC

Скачать .torrent

Скачать

17 KB

Статус: проверено
Скачан: 0 раз
Размер: 410 MB  ·  Тип торрента
terms.php
Профиль [ЛС]
Показать сообщения:    

Текущее время: 13-Июл 07:32

Часовой пояс: UTC ± 0



Вы не можете начинать темы
Вы не можете отвечать на сообщения
Вы не можете редактировать свои сообщения
Вы не можете удалять свои сообщения
Вы не можете голосовать в опросах
Вы не можете прикреплять файлы к сообщениям
Вы можете скачивать файлы