Статистика раздачи
Размер:  589 MB   |    Зарегистрирован:  11 месяцев   |    Скачан:  0 раз
DL-List: Нет

Полного источника не было: Никогда

 
     
 
 

Гость ®

Пол:
Не указан

Илья Муромец. Пролог-Страна: СССР
Студия: Союзмультфильм
Жанр: мультфильм, былина
Год выпуска: 1975
Продолжительность: 00:09:54-Режиссер: Иван Аксенчук
Текст читает: Алексей Консовский-Описание: По мотивам русской былины о богатыре Илье Муромце и каликах перехожих.
В городе Муроме жили Иван и Ефросинья, муж и жена. У них родился сын Илья. Почти тридцать лет он страдал от болезни — не мог пошевелить ни руками, ни ногами. Началась война. Проходившие мимо дома три старца, искавшие воинов, вылечили Илью и наградили его богатырской силой. В благодарность им Илья Муромец отправился на войну.
В фильме использована музыка Рейнгольда Глиэра из симфонии «Илья Муромец» под редакцией Томаса Корганова.-Доп. информация:
- Данная раздача представляет собой оцифровку оригинальной видеокассеты Госкино СССР "Русские былины".
- Покупка и оцифровка кассеты - xfiles.-Релиз: -Семпл: http://sendfile.su/1505641-Тип релиза: VHSRip
Контейнер: MPG
Видео: 720x576 (4:3) @ 768x576, 25.000 fps, MPEG-2 Video, ~8000 kbps, 0.772 bits/pixel
Аудио: Русский, 48.0 KHz, AC3, 1 ch, 192 kbps

MediaInfo

General
Complete name : Илья Муромец. Пролог 1975 VHSRip RUTRACKER.mpg
Format : MPEG-PS
File size : 589 MiB
Duration : 9 min 54 s
Overall bit rate mode : Variable
Overall bit rate : 8 302 kb/s
Video
ID : 224 (0xE0)
Format : MPEG Video
Format version : Version 2
Format profile : Main@Main
Format settings : CustomMatrix / BVOP
Format settings, BVOP : Yes
Format settings, Matrix : Custom
Format settings, GOP : M=3, N=15
Duration : 9 min 54 s
Bit rate mode : Variable
Bit rate : 8 000 kb/s
Width : 720 pixels
Height : 576 pixels
Display aspect ratio : 4:3
Frame rate : 25.000 FPS
Standard : PAL
Color space : YUV
Chroma subsampling : 4:2:0
Bit depth : 8 bits
Scan type : Progressive
Compression mode : Lossy
Bits/(Pixel*Frame) : 0.772
Time code of first frame : 00:00:00:00
Time code source : Group of pictures header
Stream size : 563 MiB (96%)
Audio
ID : 189 (0xBD)-128 (0x80)
Format : AC-3
Format/Info : Audio Coding 3
Commercial name : Dolby Digital
Muxing mode : DVD-Video
Duration : 9 min 54 s
Bit rate mode : Constant
Bit rate : 192 kb/s
Channel(s) : 1 channel
Channel layout : C
Sampling rate : 48.0 kHz
Frame rate : 31.250 FPS (1536 SPF)
Bit depth : 16 bits
Compression mode : Lossy
Stream size : 13.6 MiB (2%)
Service kind : Complete Main

Скриншоты

Сканы кассеты

[relizov.net].t4365.torrent 
Торрент: Зарегистрирован [ 2019-07-14 16:12 ] · 895AED6030AE6B86D876F5C5663859ECDB0DF85D

Скачать .torrent

Скачать

12 KB

Статус: проверено
Скачан: 0 раз
Размер: 589 MB  ·  Тип торрента
terms.php
Показать сообщения:    

Текущее время: 13-Июл 08:24

Часовой пояс: UTC ± 0



Вы не можете начинать темы
Вы не можете отвечать на сообщения
Вы не можете редактировать свои сообщения
Вы не можете удалять свои сообщения
Вы не можете голосовать в опросах
Вы не можете прикреплять файлы к сообщениям
Вы можете скачивать файлы