DOMINION ®

Пол:
Мужской
Стаж:
7 месяцев 22 дня
Сообщений:
32

Информация о фильме
Название: ВАЛЛ·И
Оригинальное название: WALL·E
Год выхода: 2008
Жанр: фантастика, мелодрама, приключения, семейный, мультфильм
Режиссер: Эндрю Стэнтон
В ролях: Бен Бертт, Элисса Найт, Джефф Гарлин, Фред Уиллард, MacInTalk, Джон Ратценбергер, Кэти Нэджими, Сигурни Уивер, Лори Алан, Боб Берген
О фильме:
Робот ВАЛЛ-И из года в год прилежно трудится на опустевшей Земле, очищая нашу планету от гор мусора, которые оставили после себя улетевшие в космос люди. Он и не представляет, что совсем скоро произойдут невероятные события, благодаря которым он встретит друзей, поднимется к звездам и даже сумеет изменить к лучшему своих бывших хозяев, совсем позабывших родную Землю.
Страна: США
Студия: Pixar Animation Studios, Walt Disney Pictures, Industrial Light & Magic (ILM), Kerner Optical
Продолжительность: 01:38:42
Перевод: Дублированный | Лицензия
Файл
формат: MKV
Качество: BDRip 2160p
Видео: H.265/HEVC, 18.4 Мбит/с, 3840x1606, 23.976 кадр/с, 10 бит
Аудио 1: 48 kHz, AC3, 5.1, 640 Kbps | Дублированный | RUS |
Аудио 2: 48 kHz, AC3, 5.1, 384 Kbps | Дублированный | UKR |
Аудио 3: 48 kHz, AC3, 5.1, 640 Kbps | Оригинал | ENG |
Субтитры: Русские (Full), украинские (Full), английские

MediaInfo

Общее
Уникальный идентификатор : 229829713680714972568406496017361327701 (0xACE797BFB194C69983093E8794CED655)
Полное имя : WALL-E.2008.2160p.UHD.BDRip.x265.10bit.SDR.Master5.mkv
Формат : Matroska
Версия формата : Version 4
Размер файла : 13,7 Гбайт
Продолжительность : 1 ч. 38 м.
Общий поток : 19,9 Мбит/сек
Название фильма : WALL-E.2008.2160p.UHD.BDRip.x265.10bit.SDR.Master5
Дата кодирования : UTC 2020-02-27 18:01:05
Программа кодирования : mkvmerge v7.9.0 ('Birds') 64bit
Библиотека кодирования : libebml v1.3.1 + libmatroska v1.4.2
Обложка : Yes
Attachments : small_cover.jpg / small_cover_land.jpg / cover.jpg / cover_land.jpg
Видео
Идентификатор : 1
Формат : HEVC
Формат/Информация : High Efficiency Video Coding
Профиль формата : Main 10@L5.1@High
Идентификатор кодека : V_MPEGH/ISO/HEVC
Продолжительность : 1 ч. 38 м.
Битрейт : 18,4 Мбит/сек
Ширина : 3840 пикселей
Высота : 1606 пикселей
Соотношение сторон : 2,40:1
Режим частоты кадров : Постоянный
Частота кадров : 23,976 (24000/1001) кадра/сек
Цветовое пространство : YUV
Субдискретизация насыщенности : 4:2:0
Битовая глубина : 10 бит
Бит/(Пиксели*Кадры) : 0.124
Размер потока : 12,6 Гбайт (92%)
Заголовок : WALL-E.2008.2160p.UHD.BDRip.x265.10bit.SDR.Master5
Библиотека кодирования : x265 3.0+1-ed72af837053:[Windows][GCC 8.2.0][64 bit] 10bit
Настройки программы : cpuid=1111039 / frame-threads=6 / numa-pools=40 / wpp / no-pmode / no-pme / no-psnr / no-ssim / log-level=2 / input-csp=1 / input-res=3840x1606 / interlace=0 / total-frames=141281 / level-idc=51 / high-tier=1 / uhd-bd=0 / ref=3 / no-allow-non-conformance / repeat-headers / annexb / aud / hrd / info / hash=0 / no-temporal-layers / no-open-gop / min-keyint=1 / keyint=24 / gop-lookahead=0 / bframes=6 / b-adapt=2 / b-pyramid / bframe-bias=0 / rc-lookahead=25 / lookahead-slices=4 / scenecut=40 / radl=0 / no-splice / no-intra-refresh / ctu=64 / min-cu-size=8 / no-rect / no-amp / max-tu-size=32 / tu-inter-depth=1 / tu-intra-depth=1 / limit-tu=0 / rdoq-level=0 / dynamic-rd=0.00 / no-ssim-rd / signhide / no-tskip / nr-intra=0 / nr-inter=0 / no-constrained-intra / strong-intra-smoothing / max-merge=2 / limit-refs=3 / no-limit-modes / me=1 / subme=2 / merange=57 / temporal-mvp / weightp / no-weightb / no-analyze-src-pics / deblock=1:1 / no-sao / no-sao-non-deblock / rd=3 / no-early-skip / rskip / no-fast-intra / no-tskip-fast / no-cu-lossless / no-b-intra / no-splitrd-skip / rdpenalty=0 / psy-rd=0.40 / psy-rdoq=0.00 / no-rd-refine / no-lossless / cbqpoffs=0 / crqpoffs=0 / rc=crf / crf=12.0 / qcomp=0.60 / qpstep=4 / stats-write=0 / stats-read=0 / vbv-maxrate=160000 / vbv-bufsize=160000 / vbv-init=0.9 / crf-max=0.0 / crf-min=0.0 / ipratio=1.40 / pbratio=1.30 / aq-mode=1 / aq-strength=0.40 / cutree / zone-count=0 / no-strict-cbr / qg-size=32 / no-rc-grain / qpmax=69 / qpmin=0 / no-const-vbv / sar=1 / overscan=0 / videoformat=5 / range=0 / colorprim=2 / transfer=2 / colormatrix=2 / chromaloc=0 / display-window=0 / max-cll=0,0 / min-luma=0 / max-luma=1023 / log2-max-poc-lsb=8 / vui-timing-info / vui-hrd-info / slices=1 / opt-qp-pps / opt-ref-list-length-pps / no-multi-pass-opt-rps / scenecut-bias=0.05 / no-opt-cu-delta-qp / no-aq-motion / no-hdr / no-hdr-opt / no-dhdr10-opt / no-idr-recovery-sei / analysis-reuse-level=5 / scale-factor=0 / refine-intra=0 / refine-inter=0 / refine-mv=0 / refine-ctu-distortion=0 / no-limit-sao / ctu-info=0 / no-lowpass-dct / refine-analysis-type=0 / copy-pic=1 / max-ausize-factor=1.0 / no-dynamic-refine / no-single-sei / no-hevc-aq / qp-adaptation-range=1.00
Язык : English
Default : Да
Forced : Нет
Аудио #1
Идентификатор : 2
Формат : AC-3
Формат/Информация : Audio Coding 3
Коммерческое название : Dolby Digital
Идентификатор кодека : A_AC3
Продолжительность : 1 ч. 37 м.
Вид битрейта : Постоянный
Битрейт : 640 Кбит/сек
Каналы : 6 каналов
Channel layout : L R C LFE Ls Rs
Частота : 48,0 КГц
Частота кадров : 31,250 кадров/сек (1536 SPF)
Битовая глубина : 16 бит
Метод сжатия : С потерями
Размер потока : 446 Мбайт (3%)
Заголовок : Dub License
Язык : Russian
ServiceKind : Complete Main
Default : Да
Forced : Да
Аудио #2
Идентификатор : 3
Формат : AC-3
Формат/Информация : Audio Coding 3
Коммерческое название : Dolby Digital
Идентификатор кодека : A_AC3
Продолжительность : 1 ч. 37 м.
Вид битрейта : Постоянный
Битрейт : 384 Кбит/сек
Каналы : 6 каналов
Channel layout : L R C LFE Ls Rs
Частота : 48,0 КГц
Частота кадров : 31,250 кадров/сек (1536 SPF)
Битовая глубина : 16 бит
Метод сжатия : С потерями
Размер потока : 267 Мбайт (2%)
Язык : Ukrainian
ServiceKind : Complete Main
Default : Нет
Forced : Нет
Аудио #3
Идентификатор : 4
Формат : AC-3
Формат/Информация : Audio Coding 3
Коммерческое название : Dolby Digital
Идентификатор кодека : A_AC3
Продолжительность : 1 ч. 38 м.
Вид битрейта : Постоянный
Битрейт : 640 Кбит/сек
Каналы : 6 каналов
Channel layout : L R C LFE Ls Rs
Частота : 48,0 КГц
Частота кадров : 31,250 кадров/сек (1536 SPF)
Битовая глубина : 16 бит
Метод сжатия : С потерями
Размер потока : 452 Мбайт (3%)
Язык : English
ServiceKind : Complete Main
Default : Нет
Forced : Нет
Текст #1
Идентификатор : 5
Формат : UTF-8
Идентификатор кодека : S_TEXT/UTF8
Идентификатор кодека/Информация : UTF-8 Plain Text
Продолжительность : 1 ч. 25 м.
Битрейт : 33 бит/сек
ElementCount : 482
Размер потока : 21,3 Кбайт (0%)
Заголовок : Full
Язык : Russian
Default : Нет
Forced : Да
Текст #2
Идентификатор : 6
Формат : UTF-8
Идентификатор кодека : S_TEXT/UTF8
Идентификатор кодека/Информация : UTF-8 Plain Text
Продолжительность : 1 ч. 27 м.
Битрейт : 35 бит/сек
ElementCount : 519
Размер потока : 22,7 Кбайт (0%)
Заголовок : Full
Язык : Ukrainian
Default : Нет
Forced : Нет
Текст #3
Идентификатор : 7
Формат : UTF-8
Идентификатор кодека : S_TEXT/UTF8
Идентификатор кодека/Информация : UTF-8 Plain Text
Продолжительность : 1 ч. 35 м.
Битрейт : 29 бит/сек
ElementCount : 794
Размер потока : 20,7 Кбайт (0%)
Заголовок : Full
Язык : English
Default : Нет
Forced : Нет
Текст #4
Идентификатор : 8
Формат : UTF-8
Идентификатор кодека : S_TEXT/UTF8
Идентификатор кодека/Информация : UTF-8 Plain Text
Продолжительность : 1 ч. 35 м.
Битрейт : 43 бит/сек
ElementCount : 1361
Размер потока : 30,5 Кбайт (0%)
Заголовок : SDH
Язык : English
Default : Нет
Forced : Нет
Меню
00:00:00.000 : en:Глава 01
00:03:36.967 : en:Глава 02
00:05:50.350 : en:Глава 03
00:09:19.434 : en:Глава 04
00:12:04.098 : en:Глава 05
00:17:57.118 : en:Глава 06
00:19:34.048 : en:Глава 07
00:21:10.811 : en:Глава 08
00:23:47.468 : en:Глава 09
00:29:18.673 : en:Глава 10
00:31:25.759 : en:Глава 11
00:33:28.423 : en:Глава 12
00:35:20.785 : en:Глава 13
00:38:50.203 : en:Глава 14
00:42:54.196 : en:Глава 15
00:43:32.318 : en:Глава 16
00:51:09.608 : en:Глава 17
00:52:08.250 : en:Глава 18
00:54:48.118 : en:Глава 19
00:56:06.446 : en:Глава 20
00:57:58.683 : en:Глава 21
00:58:41.851 : en:Глава 22
01:02:15.565 : en:Глава 23
01:03:21.714 : en:Глава 24
01:05:50.363 : en:Глава 25
01:11:45.551 : en:Глава 26
01:15:54.883 : en:Глава 27
01:19:23.467 : en:Глава 28
01:20:15.352 : en:Глава 29
01:24:14.758 : en:Глава 30
01:25:46.433 : en:Глава 31
01:30:18.162 : en:Глава 32

Скриншоты



Профиль [ЛС]
Показать сообщения:    

Текущее время: 02-Апр 09:17

Часовой пояс: UTC ± 0



Вы не можете начинать темы
Вы не можете отвечать на сообщения
Вы не можете редактировать свои сообщения
Вы не можете удалять свои сообщения
Вы не можете голосовать в опросах
Вы не можете прикреплять файлы к сообщениям
Вы не можете скачивать файлы