Статистика раздачи
Размер:  28,3 GB   |    Зарегистрирован:  2 месяца 5 дней   |    Скачан:  0 раз
DL-List: Нет

Полного источника не было: Никогда

 
     
 
 

MAGNAT ®

Пол:
Мужской
Стаж:
1 год 2 месяца
Сообщений:
7952

Восходящая Луна / The Stalking Moon- Страна: США
Студия: National General Production Inc.
Жанр: вестерн
Год выпуска: 1968
Продолжительность: 01:49:14
Перевод: Авторский (одноголосый закадровый) Константин Дьяконов
Субтитры: украинские, английские (Full, SDH)
Оригинальная аудиодорожка: английский
Режиссер: Роберт Маллиган / Robert Mulligan
В ролях: Грегори Пек, Ева Мари Сэйнт, Роберт Форстер, Ноланд Клэй, Расселл Торсон, Фрэнк Сильвера, Лонни Чэпмен, Лу Фриззелл, Генри Бекман, Чарльз Тайнер
Описание: Немолодой военный разведчик помогает белой женщине, которая всю жизнь провела в племени апачей, бежать вместе с её сыном-полукровкой. Беглецам предстоит преодолеть много опасностей и избавиться от преследования.
-
Тип релиза: BDRemux 1080p
Контейнер: MKV
Источник: The.Stalking.Moon.1968.COMPLETE.BLURAY-VALiS
Видео: MPEG-4 AVC / 34987 kbps / 1080p / 23.976 fps / 16:9 / High Profile 4.1
Аудио 1: Русский / AC3 / 2.0 / 48 kHz / 224 kbps
Аудио 2: Английский / DTS-HD MA / 2.0 / 48 kHz / 1974 kbps / 24-bit (DTS Core: 2.0 / 48 kHz / 1509 kbps / 24-bit)
Формат субтитров: SRT/PGS

MediaInfo

General
Unique ID : 3663258120168790128572293372811890071 (0x2C18491DE25128E369ACEE3F5834D97)
Complete name : The.Stalking.Moon.1968.BDRemux.mkv
Format : Matroska
Format version : Version 4
File size : 28.3 GiB
Duration : 1 h 49 min
Overall bit rate mode : Variable
Overall bit rate : 37.1 Mb/s
Movie name : The.Stalking.Moon.1968.BDRemux-MasonKaV
Encoded date : UTC 2020-03-31 16:27:39
Writing application : mkvmerge v44.0.0 ('Domino') 64-bit
Writing library : libebml v1.3.10 + libmatroska v1.5.2
Video
ID : 1
Format : AVC
Format/Info : Advanced Video Codec
Format profile : High@L4.1
Format settings : CABAC / 4 Ref Frames
Format settings, CABAC : Yes
Format settings, Reference frames : 4 frames
Codec ID : V_MPEG4/ISO/AVC
Duration : 1 h 49 min
Bit rate mode : Variable
Bit rate : 34.9 Mb/s
Maximum bit rate : 38.0 Mb/s
Width : 1 920 pixels
Height : 1 080 pixels
Display aspect ratio : 16:9
Frame rate mode : Constant
Frame rate : 23.976 (24000/1001) FPS
Color space : YUV
Chroma subsampling : 4:2:0
Bit depth : 8 bits
Scan type : Progressive
Bits/(Pixel*Frame) : 0.701
Stream size : 26.6 GiB (94%)
Language : English
Default : Yes
Forced : No
Audio #1
ID : 2
Format : AC-3
Format/Info : Audio Coding 3
Commercial name : Dolby Digital
Codec ID : A_AC3
Duration : 1 h 49 min
Bit rate mode : Constant
Bit rate : 224 kb/s
Channel(s) : 2 channels
Channel layout : L R
Sampling rate : 48.0 kHz
Frame rate : 31.250 FPS (1536 SPF)
Bit depth : 16 bits
Compression mode : Lossy
Stream size : 175 MiB (1%)
Title : AVO, Константин Дьяконов
Language : Russian
Service kind : Complete Main
Default : Yes
Forced : No
Audio #2
ID : 3
Format : DTS XLL
Format/Info : Digital Theater Systems
Commercial name : DTS-HD Master Audio
Codec ID : A_DTS
Duration : 1 h 49 min
Bit rate mode : Variable
Bit rate : 1 974 kb/s
Channel(s) : 2 channels
Channel layout : L R
Sampling rate : 48.0 kHz
Frame rate : 93.750 FPS (512 SPF)
Bit depth : 24 bits
Compression mode : Lossless
Stream size : 1.51 GiB (5%)
Title : Original
Language : English
Default : No
Forced : No
Text #1
ID : 4
Format : UTF-8
Codec ID : S_TEXT/UTF8
Codec ID/Info : UTF-8 Plain Text
Duration : 1 h 35 min
Bit rate : 32 b/s
Count of elements : 449
Stream size : 22.6 KiB (0%)
Title : Full
Language : Ukrainian
Default : No
Forced : No
Text #2
ID : 5
Format : UTF-8
Codec ID : S_TEXT/UTF8
Codec ID/Info : UTF-8 Plain Text
Duration : 1 h 35 min
Bit rate : 19 b/s
Count of elements : 535
Stream size : 13.5 KiB (0%)
Title : Full
Language : English
Default : No
Forced : No
Text #3
ID : 6
Format : UTF-8
Codec ID : S_TEXT/UTF8
Codec ID/Info : UTF-8 Plain Text
Duration : 1 h 48 min
Bit rate : 20 b/s
Count of elements : 714
Stream size : 16.4 KiB (0%)
Title : SDH SRT
Language : English
Default : No
Forced : No
Text #4
ID : 7
Format : PGS
Codec ID : S_HDMV/PGS
Codec ID/Info : Picture based subtitle format used on BDs/HD-DVDs
Duration : 1 h 48 min
Bit rate : 13.4 kb/s
Count of elements : 1428
Stream size : 10.4 MiB (0%)
Title : SDH PGS
Language : English
Default : No
Forced : No
Menu
00:00:00.000 : en:Chapter 1
00:02:55.050 : en:Chapter 2
00:04:52.709 : en:Chapter 3
00:08:36.057 : en:Chapter 4
00:11:40.408 : en:Chapter 5
00:15:25.800 : en:Chapter 6
00:18:51.797 : en:Chapter 7
00:22:21.131 : en:Chapter 8
00:25:44.543 : en:Chapter 9
00:28:36.673 : en:Chapter 10
00:31:47.864 : en:Chapter 11
00:36:05.455 : en:Chapter 12
00:40:49.197 : en:Chapter 13
00:43:49.293 : en:Chapter 14
00:47:15.916 : en:Chapter 15
00:50:58.639 : en:Chapter 16
00:54:55.125 : en:Chapter 17
00:58:32.259 : en:Chapter 18
01:01:54.961 : en:Chapter 19
01:05:47.861 : en:Chapter 20
01:08:49.208 : en:Chapter 21
01:12:10.535 : en:Chapter 22
01:16:45.017 : en:Chapter 23
01:21:18.707 : en:Chapter 24
01:24:52.629 : en:Chapter 25
01:29:56.391 : en:Chapter 26
01:33:27.936 : en:Chapter 27
01:37:53.534 : en:Chapter 28
01:41:31.669 : en:Chapter 29
01:45:30.032 : en:Chapter 30
01:48:35.634 : en:Chapter 31

Скриншоты

[relizov.net].t14452.torrent 
Торрент: Зарегистрирован [ 2020-04-01 17:06 ] · CAB7D1E7B339E4071FD1B496F31D05AA402B4FA7

Скачать .torrent

Скачать

142 KB

Статус: проверено
Скачан: 0 раз
Размер: 28,3 GB  ·  Тип торрента
terms.php
Профиль [ЛС]
Показать сообщения:    

Текущее время: 06-Июн 21:12

Часовой пояс: UTC ± 0



Вы не можете начинать темы
Вы не можете отвечать на сообщения
Вы не можете редактировать свои сообщения
Вы не можете удалять свои сообщения
Вы не можете голосовать в опросах
Вы не можете прикреплять файлы к сообщениям
Вы можете скачивать файлы