Статистика раздачи
Размер:  2,47 GB   |    Зарегистрирован:  3 месяца 11 дней   |    Скачан:  0 раз
DL-List: Нет

Полного источника не было: Никогда

 
     
 
 

MAGNAT ®

Пол:
Мужской
Стаж:
1 год 3 месяца
Сообщений:
8784

Блондинка за углом
Страна: СССР
Студия: Ленфильм
Жанр: Лирическая комедия
Год выпуска: 1984
Продолжительность: 01:18:22
Перевод: Не требуется
Субтитры: нет
Оригинальная аудиодорожка: русский
Режиссер: Владимир Бортко
В ролях: Татьяна Догилева, Андрей Миронов, Марк Прудкин, Евгения Ханаева, Елена Соловей, Анатолий Сливников, Баадур Цуладзе, Анатолий Равикович, Сергей Бехтерев, Павел Кадочников
Описание: Устроившись работать грузчиком, бывший астрофизик влюбляется в продавщицу и оказывается в окружении людей, чуждых ему. Он старается приобщить девушку к иной жизни, но на свадебном вечере убожество «служак дефицита» обнажается до предела, и герой сбегает.
Доп. информация: Фильм показывали 2 раза, так что удалось убрать всю всплывающую рекламу и перерывы на рекламу - кроме одного момента в конце если фильм ещё раз повторят когда нибудь и в этом месте не будет рекламы - обновлю раздачу.
Тип релиза: HDTV 1080i
Контейнер: MKV
Видео: MPEG4 Video (H264) 1920x1080 25fps ~4.300 kbps
Аудио: MPEG Audio Layer 2 48000Hz stereo 192kbps

MediaInfo

Complete name : Блондинка за углом (1984) HDTV 1080i by MIF.mkv
Format : Matroska
Format version : Version 4 / Version 2
File size : 2.47 GiB
Duration : 1 h 18 min
Overall bit rate : 4 514 kb/s
Encoded date : UTC 2019-03-08 16:29:17
Writing application : mkvmerge v25.0.0 ('Prog Noir') 64-bit
Writing library : libebml v1.3.6 + libmatroska v1.4.9
Video
ID : 1
Format : AVC
Format/Info : Advanced Video Codec
Format profile : High@L4
Format settings : CABAC / 4 Ref Frames
Format settings, CABAC : Yes
Format settings, ReFrames : 4 frames
Format settings, GOP : M=4, N=28
Codec ID : V_MPEG4/ISO/AVC
Duration : 1 h 18 min
Bit rate : 4 320 kb/s
Width : 1 920 pixels
Height : 1 080 pixels
Display aspect ratio : 16:9
Frame rate mode : Constant
Frame rate : 25.000 FPS
Standard : Component
Color space : YUV
Chroma subsampling : 4:2:0
Bit depth : 8 bits
Scan type : Interlaced
Scan type, store method : Separated fields
Scan order : Top Field First
Bits/(Pixel*Frame) : 0.083
Stream size : 2.36 GiB (96%)
Default : No
Forced : No
Color range : Limited
Color primaries : BT.709
Transfer characteristics : BT.709
Matrix coefficients : BT.709
Audio
ID : 2
Format : MPEG Audio
Format version : Version 1
Format profile : Layer 2
Codec ID : A_MPEG/L2
Codec ID/Hint : MP2
Duration : 1 h 18 min
Bit rate mode : Constant
Bit rate : 192 kb/s
Channel(s) : 2 channels
Sampling rate : 48.0 kHz
Frame rate : 41.676 FPS (1152 SPF)
Compression mode : Lossy
Stream size : 108 MiB (4%)
Language : Russian
Default : Yes
Forced : No

Скриншоты


[relizov.net].t14590.torrent 
Торрент: Зарегистрирован [ 2020-04-01 19:58 ] · A2D2AE0AEC1D23C5A5E5F18E46D97E3303C43F05

Скачать .torrent

Скачать

13 KB

Статус: проверено
Скачан: 0 раз
Размер: 2,47 GB  ·  Тип торрента
terms.php
Профиль [ЛС]
Показать сообщения:    

Текущее время: 13-Июл 08:54

Часовой пояс: UTC ± 0



Вы не можете начинать темы
Вы не можете отвечать на сообщения
Вы не можете редактировать свои сообщения
Вы не можете удалять свои сообщения
Вы не можете голосовать в опросах
Вы не можете прикреплять файлы к сообщениям
Вы можете скачивать файлы