Статистика раздачи
Размер:  5,01 GB   |    Зарегистрирован:  3 месяца 11 дней   |    Скачан:  0 раз
DL-List: Нет

Полного источника не было: Никогда

 
     
 
 

MAGNAT ®

Пол:
Мужской
Стаж:
1 год 3 месяца
Сообщений:
8784

Криминальный квартет
Страна: СССР
Студия: Мосфильм
Жанр: боевик, криминал
Год выпуска: 1989
Продолжительность: 01:24:20
Перевод: Не требуется
Субтитры: нет
Оригинальная аудиодорожка: русский
Режиссер: Александр Муратов
В ролях: Николай Караченцов, Владимир Стеклов, Борис Щербаков, Владимир Ерёмин, Неле Савиченко-Климене, Иван Мурадханов, Вадим Спиридонов, Игорь Ясулович, Семён Фарада, Вадим Яковлев, Борис Клюев, Алексей Шейнин, Юрий Катин-Ярцев, Юрий Гусев, Софья Горшкова
Описание: Следователь обнаруживает на торговой базе крупную партию бракованной обуви и заводит по этому поводу дело. Внезапно у него пропадает сын. Вскоре раздается звонок. Похитители требуют, чтобы он закрыл дело, если хочет увидеть своего сына живым…
Герой рассказывает об этом своим друзьям: двум оперативникам и журналисту. Они дружат еще с детского дома и готовы ради товарища пойти на все…
Тип релиза: HDTV 1080i
Контейнер: MKV
Видео: MPEG4 Video (H264) 1920x1080 25fps ~8.300 kbps
Аудио: MPEG Audio 48000Hz stereo 192kbps

MediaInfo

Complete name : Криминальный Квартет (1989) HDTV 1080i by MIF.mkv
Format : Matroska
Format version : Version 4 / Version 2
File size : 5.01 GiB
Duration : 1 h 24 min
Overall bit rate : 8 497 kb/s
Encoded date : UTC 2018-03-13 15:58:34
Writing application : mkvmerge v9.3.1 ('Mask Machine') 64bit
Writing library : libebml v1.3.4 + libmatroska v1.4.5
Video
ID : 1
Format : AVC
Format/Info : Advanced Video Codec
Format profile : Main@L4
Format settings : CABAC / 4 Ref Frames
Format settings, CABAC : Yes
Format settings, ReFrames : 4 frames
Format settings, GOP : M=1, N=32
Codec ID : V_MPEG4/ISO/AVC
Duration : 1 h 24 min
Bit rate : 8 303 kb/s
Width : 1 920 pixels
Height : 1 080 pixels
Display aspect ratio : 16:9
Frame rate mode : Constant
Frame rate : 25.000 FPS
Color space : YUV
Chroma subsampling : 4:2:0
Bit depth : 8 bits
Scan type : Interlaced
Scan type, store method : Separated fields
Scan order : Top Field First
Bits/(Pixel*Frame) : 0.160
Stream size : 4.89 GiB (98%)
Default : No
Forced : No
Color range : Limited
Color primaries : BT.709
Transfer characteristics : BT.709
Matrix coefficients : BT.709
Audio
ID : 2
Format : MPEG Audio
Format version : Version 1
Format profile : Layer 2
Codec ID : A_MPEG/L2
Codec ID/Hint : MP2
Duration : 1 h 24 min
Bit rate mode : Constant
Bit rate : 192 kb/s
Channel(s) : 2 channels
Sampling rate : 48.0 kHz
Frame rate : 41.666 FPS (1152 SPF)
Compression mode : Lossy
Stream size : 116 MiB (2%)
Language : Russian
Default : Yes
Forced : No

Скриншоты

[relizov.net].t14604.torrent 
Торрент: Зарегистрирован [ 2020-04-01 20:08 ] · 8EABA4F06224BD38C47B00F6F12453538A04AF71

Скачать .torrent

Скачать

26 KB

Статус: проверено
Скачан: 0 раз
Размер: 5,01 GB  ·  Тип торрента
terms.php
Профиль [ЛС]
Показать сообщения:    

Текущее время: 13-Июл 08:00

Часовой пояс: UTC ± 0



Вы не можете начинать темы
Вы не можете отвечать на сообщения
Вы не можете редактировать свои сообщения
Вы не можете удалять свои сообщения
Вы не можете голосовать в опросах
Вы не можете прикреплять файлы к сообщениям
Вы можете скачивать файлы