Статистика раздачи
Размер:  3,56 GB   |    Зарегистрирован:  2 месяца   |    Скачан:  0 раз
DL-List: Нет

Полного источника не было: Никогда

 
     
 
 

MAGNAT ®

Пол:
Мужской
Стаж:
1 год 2 месяца
Сообщений:
7952

Очень женские истории
Страна: Россия
Студия: Vita Aktiva
Жанр: комедия, мелодрама
Год выпуска: 2020
Продолжительность: 01:32:47
Перевод: Не требуется
Субтитры: нет
Оригинальная аудиодорожка: русский
Режиссер: Наталья Меркулова, Лика Ятковская, Анна Саруханова, Оксана Михеева, Антон Бильжо
В ролях: Анна Михалкова, Виктория Исакова, Виктория Толстоганова, Лукерья Ильяшенко, Анна Слю, Любовь Толкалина, Полина Виторган, Кристина Бабушкина, Диана Дэлль, Анфиса Черных, Виталий Гогунский
Описание: Киноальманах из пяти короткометражных фильмов, снятых четырьмя женщинами и одним мужчиной. В нем рассказываются истории о десяти девушках, у каждой из которой – своя судьба. Чего хотят женщины? Одни ответят, что счастья в браке и детей. Другие – денег и успешной карьеры. Большинство расскажут про любовь. А кто-то пошутит про волшебный пульт, который даст возможность одним кликом изменить возлюбленного к лучшему. Десять разных женщин, которых объединяет одно: жажда жить по-настоящему.
Сэмпл: http://sendfile.su/1554398
Тип релиза: WEBRip 1080p (ivi)
Контейнер: MKV
Видео: AVC, 5120 Kb/s, 1920x1080, 25.000 FPS
Аудио: 48.0 kHz, AC3, 5.1, 384 Kb/s | Русский (оригинал)

MediaInfo

General
Unique ID : 227292745123205220488634792020057733306 (0xAAFEFD8AB06016898726D156AAEB38BA)
Complete name : Ochen.zhenskie.istorii.2020.WEB-DL.1080p.mkv
Format : Matroska
Format version : Version 4
File size : 3.56 GiB
Duration : 1 h 32 min
Overall bit rate : 5 497 kb/s
Movie name : Ochen.zhenskie.istorii.2020.WEB-DL.1080p by mreskenses
Encoded date : UTC 2020-04-05 00:04:07
Writing application : mkvmerge v8.3.0 ('Over the Horizon') 64bit
Writing library : libebml v1.3.1 + libmatroska v1.4.2
Video #1
ID : 1
Format : AVC
Format/Info : Advanced Video Codec
Format profile : High@L4
Format settings : CABAC / 4 Ref Frames
Format settings, CABAC : Yes
Format settings, Reference frames : 4 frames
Codec ID : V_MPEG4/ISO/AVC
Duration : 1 h 32 min
Bit rate : 5 120 kb/s
Width : 1 920 pixels
Height : 1 080 pixels
Display aspect ratio : 16:9
Frame rate mode : Constant
Frame rate : 25.000 FPS
Color space : YUV
Chroma subsampling : 4:2:0
Bit depth : 8 bits
Scan type : Progressive
Bits/(Pixel*Frame) : 0.099
Stream size : 3.31 GiB (93%)
Title : Ochen.zhenskie.istorii.2020.WEB-DL.1080p by mreskenses
Writing library : x264 core 148
Encoding settings : cabac=1 / ref=3 / deblock=1:0:0 / analyse=0x3:0x113 / me=hex / subme=7 / psy=1 / psy_rd=1.00:0.00 / mixed_ref=1 / me_range=16 / chroma_me=1 / trellis=1 / 8x8dct=1 / cqm=0 / deadzone=21,11 / fast_pskip=1 / chroma_qp_offset=-2 / threads=34 / lookahead_threads=5 / sliced_threads=0 / nr=0 / decimate=1 / interlaced=0 / bluray_compat=0 / constrained_intra=0 / bframes=6 / b_pyramid=2 / b_adapt=1 / b_bias=0 / direct=1 / weightb=1 / open_gop=0 / weightp=2 / keyint=50 / keyint_min=26 / scenecut=0 / intra_refresh=0 / rc_lookahead=40 / rc=2pass / mbtree=1 / bitrate=5120 / ratetol=1.0 / qcomp=0.60 / qpmin=0 / qpmax=69 / qpstep=4 / cplxblur=20.0 / qblur=0.5 / vbv_maxrate=7680 / vbv_bufsize=20480 / nal_hrd=none / filler=0 / ip_ratio=1.40 / aq=1:1.00
Language : Russian
Default : Yes
Forced : No
Audio #2
ID : 2
Format : AC-3
Format/Info : Audio Coding 3
Commercial name : Dolby Digital
Codec ID : A_AC3
Duration : 1 h 32 min
Bit rate mode : Constant
Bit rate : 384 kb/s
Channel(s) : 6 channels
Channel layout : L R C LFE Ls Rs
Sampling rate : 48.0 kHz
Frame rate : 31.250 FPS (1536 SPF)
Compression mode : Lossy
Stream size : 255 MiB (7%)
Language : Russian
Service kind : Complete Main
Default : Yes
Forced : No

Скриншоты

[relizov.net].t15071.torrent 
Торрент: Зарегистрирован [ 2020-04-06 11:33 ] · 136CEAD48CCE348815453675CF94581D3060CA0D

Скачать .torrent

Скачать

18 KB

Статус: проверено
Скачан: 0 раз
Размер: 3,56 GB  ·  Тип торрента
terms.php
Профиль [ЛС]
Показать сообщения:    

Текущее время: 06-Июн 20:36

Часовой пояс: UTC ± 0



Вы не можете начинать темы
Вы не можете отвечать на сообщения
Вы не можете редактировать свои сообщения
Вы не можете удалять свои сообщения
Вы не можете голосовать в опросах
Вы не можете прикреплять файлы к сообщениям
Вы можете скачивать файлы