Статистика раздачи
Размер:  1,46 GB   |    Зарегистрирован:  3 месяца 3 дня   |    Скачан:  0 раз
DL-List: Нет

Полного источника не было: Никогда

 
     
 
 

MAGNAT ®

Пол:
Мужской
Стаж:
1 год 3 месяца
Сообщений:
8784

Фиксики против кработов- Год выхода: 2019
Выпущено: Россия
Жанр: приключения, музыка, мультфильм
Продолжительность: 01:25:57
Перевод: Не требуется
Субтитры: нет-Режиссер:
Василий Бедошвили, Олег Ужинов, Иван Пшонкин-В ролях:
Дмитрий Назаров, Нонна Гришаева, Лариса Брохман, Диомид Виноградов, Дмитрий Сыендук, Прохор Чеховской, Инна Королёва, Лилия Шайхитдинова, Варвара Обидор, Пётр Иващенко-О фильме:
Фиксики — маленькие добрые человечки, которые живут в машинах и приборах и заботятся о технике. От людей фиксики скрываются: в мире есть всего несколько счастливчиков, которые общаются с ними. В лаборатории профессора Чудакова находится школа фиксиков, о которой знают только мальчик ДимДимыч и его подруга Катя. Но однажды там появляются неуловимые существа. Они шпионят за фиксиками и угрожают их тайне. Кто такие эти странные роботы-кработы, что им нужно и кто стоит за ними? Оказывается, у Чудакова есть давний недоброжелатель, и профессора вызывают на дуэль, чтобы свести старые счеты! Новые друзья — Мега и Альт — придут на помощь нашим фиксикам, и все попадут в невероятный водоворот приключений!-Качество: WEB-DLRip
Формат: AVI
Видео: 720x304 (2.37:1), 24 fps, XviD build 67 ~1967 kbps avg, 0.37 bit/pixel
Аудио: 48 kHz, AC3 Dolby Digital, 3/2 (L,C,R,l,r) + LFE ch, ~448 kbps avg-

Скриншоты

-

MediaInfo

Код:Общее
Полное имя : D:\Fixiki_protiv_krabotov_2019_WEB-DLRip_by_Dalemake.avi
Формат : AVI
Формат/Информация : Audio Video Interleave
Размер файла : 1,46 Гбайт
Продолжительность : 1 ч. 25 м.
Общий поток : 2425 Кбит/сек
Программа кодирования : VirtualDubMod 1.5.10.3 | www.virtualdub-fr.org || (build 2550/release)
Библиотека кодирования : VirtualDubMod build 2550/release
Видео
Идентификатор : 0
Формат : MPEG-4 Visual
Профиль формата : Advanced Simple@L5
Настройки формата : BVOP2 / Custom Matrix
Параметр BVOP формата : 2
Параметр QPel формата : Нет
Параметр GMC формата : Без точки перехода
Параметр матрицы формата : Выборочная
Идентификатор кодека : XVID
Идентификатор кодека/Подсказка : XviD
Продолжительность : 1 ч. 25 м.
Битрейт : 1967 Кбит/сек
Ширина : 720 пикселей
Высота : 304 пикселя
Соотношение сторон : 2,35:1
Частота кадров : 24,000 кадра/сек
Цветовое пространство : YUV
Субдискретизация насыщенности : 4:2:0
Битовая глубина : 8 бит
Тип развёртки : Прогрессивная
Метод сжатия : С потерями
Бит/(Пиксели*Кадры) : 0.375
Размер потока : 1,18 Гбайт (81%)
Библиотека кодирования : XviD 67
Аудио
Идентификатор : 1
Формат : AC-3
Формат/Информация : Audio Coding 3
Коммерческое название : Dolby Digital
Идентификатор кодека : 2000
Продолжительность : 1 ч. 25 м.
Вид битрейта : Постоянный
Битрейт : 448 Кбит/сек
Каналы : 6 каналов
ChannelLayout : L R C LFE Ls Rs
Частота : 48,0 КГц
Частота кадров : 31,250 кадров/сек (1536 SPF)
Битовая глубина : 16 бит
Метод сжатия : С потерями
Размер потока : 275 Мбайт (18%)
Выравнивание : Разделение по промежуткам
Продолжительность промежутка : 42 мс. (1,00 видеокадр)
Время предзагрузки промежутка : 500 мс.
ServiceKind/String : Complete Main
-
[relizov.net].t15396.torrent 
Торрент: Зарегистрирован [ 2020-04-09 09:53 ] · 0C996A2EB3CE21514CEBDAC080531DDE777BDDD7

Скачать .torrent

Скачать

15 KB

Статус: проверено
Скачан: 0 раз
Размер: 1,46 GB  ·  Тип торрента
terms.php
Профиль [ЛС]
Показать сообщения:    

Текущее время: 13-Июл 07:14

Часовой пояс: UTC ± 0



Вы не можете начинать темы
Вы не можете отвечать на сообщения
Вы не можете редактировать свои сообщения
Вы не можете удалять свои сообщения
Вы не можете голосовать в опросах
Вы не можете прикреплять файлы к сообщениям
Вы можете скачивать файлы