Статистика раздачи
Размер:  699 MB   |    Зарегистрирован:  3 месяца 3 дня   |    Скачан:  0 раз
DL-List: Нет

Полного источника не было: Никогда

 
     
 
 

MAGNAT ®

Пол:
Мужской
Стаж:
1 год 3 месяца
Сообщений:
8784

Баня
Страна: СССР
Жанр: мультфильм, сатира, экранизация
Продолжительность: 00:50:50
Год выпуска: 1962
Русские субтитры: нет
Режиссёры: Сергей Юткевич, Анатолий Каранович
Композитор: Родион Щедрин
Роли озвучивали: Аркадий Райкин, Екатерина Райкина
Описание: По одноимённой пьесе Владимира Маяковского.
Изобретатели Чудаков и Велосипедкин конструируют машину времени. Средства на это важное для советской науки и индустрии изобретение должен выделить Победоносиков - главный начальник по управлению согласованием. Но самоуверенный бюрократ "главначпупс", не глядя, отказывает в финансировании. Тем временем советским изобретением живо интересуется иностранец Понт Кич...
Качество: WEBRip
Формат: AVI
Видео: 1786 kbps, 720х304 (2.35:1), 25.000 fps, MPEG-4 Visual (XviD)
Аудио: 128 kbps, 44.1 kHz, 2 channels, MPEG Audio (MP3)
Субтитры: отсутствуют

Подробные технические данные

General
Complete name : Баня (1962).avi
Format : AVI
Format/Info : Audio Video Interleave
File size : 699 MiB
Duration : 50mn 50s
Overall bit rate : 1 924 Kbps
Writing application : VirtualDubMod 1.5.10.2 (build 2540/release)
Writing library : VirtualDubMod build 2540/release
Video
ID : 0
Format : MPEG-4 Visual
Format profile : Advanced Simple@L5
Format settings, BVOP : 2
Format settings, QPel : No
Format settings, GMC : No warppoints
Format settings, Matrix : Default (H.263)
Codec ID : XVID
Codec ID/Hint : XviD
Duration : 50mn 50s
Bit rate : 1 786 Kbps
Width : 720 pixels
Height : 304 pixels
Display aspect ratio : 2.35:1
Frame rate : 25.000 fps
Color space : YUV
Chroma subsampling : 4:2:0
Bit depth : 8 bits
Scan type : Progressive
Compression mode : Lossy
Bits/(Pixel*Frame) : 0.326
Stream size : 649 MiB (93%)
Writing library : XviD 73
Audio
ID : 1
Format : MPEG Audio
Format version : Version 1
Format profile : Layer 3
Codec ID : 55
Codec ID/Hint : MP3
Duration : 50mn 50s
Bit rate mode : Constant
Bit rate : 128 Kbps
Channel(s) : 2 channels
Sampling rate : 44.1 KHz
Compression mode : Lossy
Stream size : 46.5 MiB (7%)
Alignment : Split accross interleaves
Interleave, duration : 40 ms (1.00 video frame)
Interleave, preload duration : 500 ms

Скриншоты


[relizov.net].t15398.torrent 
Торрент: Зарегистрирован [ 2020-04-09 09:54 ] · 932E6CB12725D2FD6F1C34885B8EBEA9E941612A

Скачать .torrent

Скачать

14 KB

Статус: проверено
Скачан: 0 раз
Размер: 699 MB  ·  Тип торрента
terms.php
Профиль [ЛС]
Показать сообщения:    

Текущее время: 13-Июл 09:00

Часовой пояс: UTC ± 0



Вы не можете начинать темы
Вы не можете отвечать на сообщения
Вы не можете редактировать свои сообщения
Вы не можете удалять свои сообщения
Вы не можете голосовать в опросах
Вы не можете прикреплять файлы к сообщениям
Вы можете скачивать файлы