Статистика раздачи
Размер:  2,68 GB   |    Зарегистрирован:  3 месяца 3 дня   |    Скачан:  0 раз
DL-List: Нет

Полного источника не было: Никогда

 
     
 
 

MAGNAT ®

Пол:
Мужской
Стаж:
1 год 3 месяца
Сообщений:
8784

Тайна третьей планеты [Оригинальная версия без реставрации]-Страна: СССР
Студия: Союзмультфильм
Жанр: мультфильм, детский, научная фантастика, приключения, экранизация
Год выпуска: 1981
Продолжительность: 00:47:18-Режиссер: Роман Качанов
Роли озвучивали: Ольга Громова, Всеволод Ларионов, Юрий Волынцев, Василий Ливанов, Григорий Шпигель, Пётр Вишняков, Владимир Дружников, Владимир Кенигсон, Юрий Андреев, Екатерина Краснобаева, Татьяна Маврина, Рина Зелёная, Николай Граббе, Игорь Ясулович, Роман Качанов (младший)-Описание: Экранизация повести Кира Булычёва «Путешествие Алисы» («Алиса и три капитана») из цикла «Приключения Алисы».
Приключения девочки Алисы, её ученого папы и меланхолика капитана Зелёного, а также добродушного чудовища Громозеки и птицы Говоруна, который, как известно, отличается умом и сообразительностью.-Тип релиза: VHSRip
Контейнер: MPG
Видео: 720x576 (4:3) @ 768x576, 25.000 fps, MPEG-2 Video, ~7800 kbps, 0.752 bits/pixel
Аудио : Русский, 48.0 KHz, AC3, 1 ch, 192 kbps
Субтитры: нет

MediaInfo

General
Complete name : Тайна.третьей.планеты.1981.VHSRip-RUTRACKER.mpg
Format : MPEG-PS
File size : 2.68 GiB
Duration : 47 min 18 s
Overall bit rate mode : Variable
Overall bit rate : 8 099 kb/s
Video
ID : 224 (0xE0)
Format : MPEG Video
Format version : Version 2
Format profile : Main@Main
Format settings : CustomMatrix / BVOP
Format settings, BVOP : Yes
Format settings, Matrix : Custom
Format settings, GOP : M=3, N=15
Format settings, picture structure : Frame
Duration : 47 min 18 s
Bit rate mode : Variable
Bit rate : 7 800 kb/s
Width : 720 pixels
Height : 576 pixels
Display aspect ratio : 4:3
Frame rate : 25.000 FPS
Standard : PAL
Color space : YUV
Chroma subsampling : 4:2:0
Bit depth : 8 bits
Scan type : Interlaced
Scan order : Top Field First
Compression mode : Lossy
Bits/(Pixel*Frame) : 0.752
Time code of first frame : 00:00:00:00
Time code source : Group of pictures header
GOP, Open/Closed : Open
GOP, Open/Closed of first frame : Closed
Stream size : 2.56 GiB (96%)
Audio
ID : 189 (0xBD)-128 (0x80)
Format : AC-3
Format/Info : Audio Coding 3
Commercial name : Dolby Digital
Muxing mode : DVD-Video
Duration : 47 min 18 s
Bit rate mode : Constant
Bit rate : 192 kb/s
Channel(s) : 1 channel
Channel layout : C
Sampling rate : 48.0 kHz
Frame rate : 31.250 FPS (1536 SPF)
Bit depth : 16 bits
Compression mode : Lossy
Stream size : 65.0 MiB (2%)
Service kind : Complete Main

Скриншоты

[relizov.net].t15400.torrent 
Торрент: Зарегистрирован [ 2020-04-09 09:55 ] · 62C95477534D1BFAA62C4F2E76CC11E650F477F3

Скачать .torrent

Скачать

14 KB

Статус: проверено
Скачан: 0 раз
Размер: 2,68 GB  ·  Тип торрента
terms.php
Профиль [ЛС]
Показать сообщения:    

Текущее время: 13-Июл 07:53

Часовой пояс: UTC ± 0



Вы не можете начинать темы
Вы не можете отвечать на сообщения
Вы не можете редактировать свои сообщения
Вы не можете удалять свои сообщения
Вы не можете голосовать в опросах
Вы не можете прикреплять файлы к сообщениям
Вы можете скачивать файлы