Статистика раздачи
Размер:  670 MB   |    Зарегистрирован:  3 месяца 3 дня   |    Скачан:  0 раз
DL-List: Нет

Полного источника не было: Никогда

 
     
 
 

MAGNAT ®

Пол:
Мужской
Стаж:
1 год 3 месяца
Сообщений:
8784

Гофманиада-Страна: Россия
Студия: Союзмультфильм
Жанр: мультфильм, сказка, экранизация
Год выпуска: 2018
Продолжительность: 01:10:28-Режиссер: Станислав Соколов
Роли озвучивали: Владимир Кошевой, Анна Артамонова, Александр Ширвиндт, Алексей Петренко, Павел Любимцев, Вячеслав Полунин, Наталья Фиссон, Кевин Кейт Мак-Нир, Виктор Дурицын-Описание: Анимационная фантазия по мотивам сказок Эрнста Теодора Амадея Гофмана.
Главный герой фильма — Эрнст Гофман, молодой юрист, музыкант и писатель, который живёт сразу в двух измерениях: воображаемом мире собственных произведений и в обычной реальности небольшого немецкого городка. В образах своих героев Гофману предстоит пережить самые удивительные и полные опасностей приключения, которые могут оказаться не просто фантазиями из его собственных сказок.-Тип релиза: DVB
Контейнер: TS
Видео: 720x576 (16:9) @ 1024x576, 25.000 fps, AVC, ~1070 Kbps, 0.103 bits/pixel
Аудио: Русский, 48.0 KHz, MPEG-1 Audio layer 2, 2 ch, 192 Kbps

MediaInfo

General
ID : 1 (0x1)
Complete name : Гофманиада 2018 Культура.ts
Format : MPEG-TS
File size : 670 MiB
Duration : 1 h 10 min
Overall bit rate mode : Variable
Overall bit rate : 1 330 kb/s
Video
ID : 205 (0xCD)
Menu ID : 1 (0x1)
Format : AVC
Format/Info : Advanced Video Codec
Format profile : High@L3
Format settings : CABAC / 4 Ref Frames
Format settings, CABAC : Yes
Format settings, Reference frames : 4 frames
Format settings, GOP : M=4, N=28
Codec ID : 27
Duration : 1 h 10 min
Bit rate : 1 070 kb/s
Width : 720 pixels
Height : 576 pixels
Display aspect ratio : 16:9
Frame rate : 25.000 FPS
Standard : Component
Color space : YUV
Chroma subsampling : 4:2:0
Bit depth : 8 bits
Scan type : Interlaced
Scan type, store method : Separated fields
Scan order : Top Field First
Bits/(Pixel*Frame) : 0.103
Stream size : 540 MiB (80%)
Color range : Limited
Color primaries : BT.601 PAL
Transfer characteristics : BT.470 System B/G
Matrix coefficients : BT.470 System B/G
Audio
ID : 305 (0x131)
Menu ID : 1 (0x1)
Format : MPEG Audio
Format version : Version 1
Format profile : Layer 2
Codec ID : 3
Duration : 1 h 10 min
Bit rate mode : Constant
Bit rate : 192 kb/s
Channel(s) : 2 channels
Sampling rate : 48.0 kHz
Frame rate : 41.667 FPS (1152 SPF)
Compression mode : Lossy
Stream size : 96.8 MiB (14%)
Language : Russian
Text
ID : 505 (0x1F9)-888
Menu ID : 1 (0x1)
Format : Teletext Subtitle
Language : Russian
Language, more info : For hearing impaired people
Other
ID : 505 (0x1F9)-100
Menu ID : 1 (0x1)
Format : Teletext
Language : Russian

Скриншоты

[relizov.net].t15402.torrent 
Торрент: Зарегистрирован [ 2020-04-09 09:56 ] · 3571DF816943B7248BEDCF559C1D039E2E636785

Скачать .torrent

Скачать

14 KB

Статус: проверено
Скачан: 0 раз
Размер: 670 MB  ·  Тип торрента
terms.php
Профиль [ЛС]
Показать сообщения:    

Текущее время: 13-Июл 07:09

Часовой пояс: UTC ± 0



Вы не можете начинать темы
Вы не можете отвечать на сообщения
Вы не можете редактировать свои сообщения
Вы не можете удалять свои сообщения
Вы не можете голосовать в опросах
Вы не можете прикреплять файлы к сообщениям
Вы можете скачивать файлы