Статистика раздачи
Размер:  1,84 GB   |    Зарегистрирован:  1 месяц 25 дней   |    Скачан:  0 раз
DL-List: Нет

Полного источника не было: Никогда

 
     
 
 

MAGNAT ®

Пол:
Мужской
Стаж:
1 год 2 месяца
Сообщений:
7952

Формула 1. Сезон 2020. Ferrari Car Launch. Sky Sports F1 HD
Вид спорта: Формула 1
Язык комментариев:Английский
Качество: ΙPTV
Формат видео: MKV
Видео: H264, 1920X1080p, 25 кадр/c, 5 000 kb/s
Аудио: AAC 2.0, 48.0 KHz, 128 kb/s Английский
Дата/Год выпуска: 11.02.2020

Продолжительность

0:44:21

Скриншоты

MediaInfo

General
Unique ID : 179405473298882037010769844448154366515 (0x86F83CC1172F181388A0707D19943233)
Complete name : F:\F1_2020\F1.2020.Ferrari.Car.Launch.SkyF1HD.1080P.mkv
Format : Matroska
Format version : Version 4
File size : 1.84 GiB
Duration : 44 min 21 s
Overall bit rate mode : Variable
Overall bit rate : 5 929 kb/s
Encoded date : UTC 2020-02-13 18:49:44
Writing application : mkvmerge v43.0.0 ('The Quartermaster') 64-bit
Writing library : libebml v1.3.10 + libmatroska v1.5.2
Video
ID : 1
Format : AVC
Format/Info : Advanced Video Codec
Format profile : High@L4.2
Format settings : CABAC / 1 Ref Frames
Format settings, CABAC : Yes
Format settings, Reference frames : 1 frame
Codec ID : V_MPEG4/ISO/AVC
Duration : 44 min 21 s
Bit rate mode : Variable
Bit rate : 5 672 kb/s
Maximum bit rate : 6 200 kb/s
Width : 1 920 pixels
Height : 1 080 pixels
Display aspect ratio : 16:9
Frame rate mode : Constant
Frame rate : 50.000 FPS
Color space : YUV
Chroma subsampling : 4:2:0
Bit depth : 8 bits
Scan type : Progressive
Bits/(Pixel*Frame) : 0.055
Stream size : 1.76 GiB (96%)
Default : Yes
Forced : No
Audio
ID : 2
Format : AAC LC
Format/Info : Advanced Audio Codec Low Complexity
Codec ID : A_AAC-2
Duration : 44 min 21 s
Bit rate : 254 kb/s
Channel(s) : 2 channels
Channel layout : L R
Sampling rate : 44.1 kHz
Frame rate : 43.066 FPS (1024 SPF)
Compression mode : Lossy
Delay relative to video : -2 ms
Stream size : 80.4 MiB (4%)
Language : English
Default : Yes
Forced : No
[relizov.net].t15593.torrent 
Торрент: Зарегистрирован [ 2020-04-10 12:38 ] · A423A1F13858494F71F04DF5AFDFAF6472FDD687

Скачать .torrent

Скачать

37 KB

Статус: проверено
Скачан: 0 раз
Размер: 1,84 GB  ·  Тип торрента
terms.php
Профиль [ЛС]
Показать сообщения:    

Текущее время: 06-Июн 01:46

Часовой пояс: UTC ± 0



Вы не можете начинать темы
Вы не можете отвечать на сообщения
Вы не можете редактировать свои сообщения
Вы не можете удалять свои сообщения
Вы не можете голосовать в опросах
Вы не можете прикреплять файлы к сообщениям
Вы можете скачивать файлы