Статистика раздачи
Размер:  394 MB   |    Зарегистрирован:  3 месяца 2 дня   |    Скачан:  0 раз
DL-List: Нет

Полного источника не было: Никогда

 
     
 
 

benson26 ®

Пол:
Не указан
Стаж:
5 месяцев 14 дней
Сообщений:
257

Asha Puthli / Lost
Жанр: Pop, Folk, World, & Country
Носитель: CD
Страна-производитель диска (релиза): France
Год издания: 2009
Издатель (лейбл): Kyrone Gp Music
Номер по каталогу: GPKR 08002
Страна исполнителя (группы): USA
Аудиокодек: FLAC (*.flac)
Тип рипа: image+.cue
Продолжительность: 00:55:41
Источник: собственный рип
Наличие сканов в содержимом раздачи: да
Треклист:
1 The Devil Is Loose 4:03
2 Lost 5:36
3 A Salty Dog 4:49
4 Love Unconditional 5:32
5 War, What For ? 5:09
6 Tell Me Why 5:51
7 Shine In The Sky 5:18
8 Dum Maro Dum 3:56
9 Merey Dil May 5:17
10 My Prayer 5:14
11 L'Hymne À L'Amour 4:52

Лог создания рипа

Exact Audio Copy V1.5 from 20. February 2020
Отчёт EAC об извлечении, выполненном 3. апреля 2020, 23:15
Asha Puthli / Lost
Дисковод: HL-DT-STDVD-ROM GDR8164B Adapter: 1 ID: 0
Режим чтения : Достоверность
Использование точного потока : Да
Отключение кэша аудио : Да
Использование указателей C2 : Нет
Коррекция смещения при чтении : 102
Способность читать области Lead-in и Lead-out : Нет
Заполнение пропущенных сэмплов тишиной : Да
Удаление блоков с тишиной в начале и конце : Нет
При вычислениях CRC использовались нулевые сэмплы : Да
Интерфейс : Встроенный Win32-интерфейс для Win NT/2000
Выходной формат : Пользовательский кодировщик
Выбранный битрейт : 1024 kBit/s
Качество : Высокий
Добавление ID3-тега : Нет
Утилита сжатия : E:\Программы\Losseless\FLAC frontend v2.1(portable+msi)\tools\flac.exe
Дополнительные параметры : -V -8 -T "Date=%year%" -T "Genre=%genre%" %source%
TOC извлечённого CD
Трек | Старт | Длительность | Начальный сектор | Конечный сектор
---------------------------------------------------------------------
1 | 0:00.00 | 4:03.39 | 0 | 18263
2 | 4:03.39 | 5:36.06 | 18264 | 43469
3 | 9:39.45 | 4:49.26 | 43470 | 65170
4 | 14:28.71 | 5:32.36 | 65171 | 90106
5 | 20:01.32 | 5:09.41 | 90107 | 113322
6 | 25:10.73 | 5:51.17 | 113323 | 139664
7 | 31:02.15 | 5:18.52 | 139665 | 163566
8 | 36:20.67 | 3:56.27 | 163567 | 181293
9 | 40:17.19 | 5:17.19 | 181294 | 205087
10 | 45:34.38 | 5:14.45 | 205088 | 228682
11 | 50:49.08 | 4:52.14 | 228683 | 250596
Характеристики диапазона извлечения и сообщения об ошибках
Выбранный диапазон
Имя файла E:\Торент-раздача\Asha Puthli 2009 Lost\Asha Puthli - Lost.wav
Пиковый уровень 98.8 %
Скорость извлечения 8.2 X
Качество диапазона 100.0 %
CRC теста 42ED4E41
CRC копии 42ED4E41
Копирование... OK
Ошибок не произошло
AccurateRip: сводка
Трек 1 отсутствует в базе данных
Трек 2 отсутствует в базе данных
Трек 3 отсутствует в базе данных
Трек 4 отсутствует в базе данных
Трек 5 отсутствует в базе данных
Трек 6 отсутствует в базе данных
Трек 7 отсутствует в базе данных
Трек 8 отсутствует в базе данных
Трек 9 отсутствует в базе данных
Трек 10 отсутствует в базе данных
Трек 11 отсутствует в базе данных
Ни одного трека нет в базе AccurateRip
Конец отчёта
---- CUETools DB Plugin V2.1.6
[CTDB TOCID: iLykg1hlAmqedhuUvZqUtjzM_Is-] found
Submit result: iLykg1hlAmqedhuUvZqUtjzM_Is- has been confirmed
Track | CTDB Status
1 | (4/4) Accurately ripped
2 | (4/4) Accurately ripped
3 | (4/4) Accurately ripped
4 | (4/4) Accurately ripped
5 | (4/4) Accurately ripped
6 | (4/4) Accurately ripped
7 | (4/4) Accurately ripped
8 | (4/4) Accurately ripped
9 | (4/4) Accurately ripped
10 | (4/4) Accurately ripped
11 | (4/4) Accurately ripped
==== Контрольная сумма отчёта D1117BF89C8AE6005DE34F79F03A45616ADFC7434EBEF289AE3897CEB294AB1A ====

Содержание индексной карты (.CUE)

REM DISCID 840D0D0B
REM COMMENT "ExactAudioCopy v1.5"
PERFORMER "Asha Puthli"
TITLE "Lost"
REM COMPOSER ""
FILE "Asha Puthli - Lost.flac" WAVE
TRACK 01 AUDIO
TITLE "The Devil Is Loose"
PERFORMER "Asha Puthli"
REM COMPOSER ""
INDEX 01 00:00:00
TRACK 02 AUDIO
TITLE "Lost"
PERFORMER "Asha Puthli"
REM COMPOSER ""
INDEX 01 04:03:39
TRACK 03 AUDIO
TITLE "A Salty Dog"
PERFORMER "Asha Puthli"
REM COMPOSER ""
INDEX 00 09:38:07
INDEX 01 09:39:45
TRACK 04 AUDIO
TITLE "Love Unconditional"
PERFORMER "Asha Puthli"
REM COMPOSER ""
INDEX 00 14:28:17
INDEX 01 14:28:71
TRACK 05 AUDIO
TITLE "War, What For?"
PERFORMER "Asha Puthli"
REM COMPOSER ""
INDEX 00 19:59:35
INDEX 01 20:01:32
TRACK 06 AUDIO
TITLE "Tell Me Why"
PERFORMER "Asha Puthli"
REM COMPOSER ""
INDEX 00 25:10:69
INDEX 01 25:10:73
TRACK 07 AUDIO
TITLE "Shine In The Sky"
PERFORMER "Asha Puthli"
REM COMPOSER ""
INDEX 00 31:02:04
INDEX 01 31:02:15
TRACK 08 AUDIO
TITLE "Dum Maro Dum"
PERFORMER "Asha Puthli"
REM COMPOSER ""
INDEX 00 36:19:27
INDEX 01 36:20:67
TRACK 09 AUDIO
TITLE "Merey Dil May"
PERFORMER "Asha Puthli"
REM COMPOSER ""
INDEX 00 40:16:44
INDEX 01 40:17:19
TRACK 10 AUDIO
TITLE "My Prayer"
PERFORMER "Asha Puthli"
REM COMPOSER ""
INDEX 00 45:32:56
INDEX 01 45:34:38
TRACK 11 AUDIO
TITLE "L'Hymne A L'Amour"
PERFORMER "Asha Puthli"
REM COMPOSER ""
INDEX 00 50:47:00
INDEX 01 50:49:08
[relizov.net].t15719.torrent 
Торрент: Зарегистрирован [ 2020-04-10 17:56 ] · 67A5A3761F34B1939BBC6E3338430AC5DB8466AF

Скачать .torrent

Скачать

16 KB

Статус: проверено
Скачан: 0 раз
Размер: 394 MB  ·  Тип торрента
terms.php
Профиль [ЛС]
Показать сообщения:    

Текущее время: 13-Июл 07:52

Часовой пояс: UTC ± 0



Вы не можете начинать темы
Вы не можете отвечать на сообщения
Вы не можете редактировать свои сообщения
Вы не можете удалять свои сообщения
Вы не можете голосовать в опросах
Вы не можете прикреплять файлы к сообщениям
Вы можете скачивать файлы