Статистика раздачи
Размер:  470 MB   |    Зарегистрирован:  3 месяца 2 дня   |    Скачан:  0 раз
DL-List: Нет

Полного источника не было: Никогда

 
     
 
 

benson26 ®

Пол:
Не указан
Стаж:
5 месяцев 14 дней
Сообщений:
257

Andra spelar Sundström
Жанр: Pop
Носитель: CD
Год издания: 2010
Издатель (лейбл): National
Номер по каталогу: NATCD106
Страна исполнителя (группы): Sweden
Аудиокодек: FLAC (*.flac)
Тип рипа: image+.cue
Продолжительность: 00:56:34
Источник: собственный рип
Наличие сканов в содержимом раздачи: да
Треклист:
01. Blåöga - LARS WINNERBÄCK
02. Sökte Gud - OLA MAGNELL
03. När Tåget Går - MISS LI
04. Amors Pilar - LOVE ANTELL
05. Onda Barn - EMMA ESSINGER
06. Hög Kan Bli Låg - MISS LI
07. Jonny Dunder - OLA MAGNELL
08. Under Isen - MISS LI
09. Vårsamba - LARS WINNERBÄCK
10. Teddybjörnen - LOVE ANTELL
11. Vitabergspredikan - DUNDERTÅGET
12. Fula Gubben Hitler - LITTLE MARBLES

Лог создания рипа

Exact Audio Copy V1.3 from 2. September 2016
EAC extraction logfile from 16. January 2020, 22:45
Various Artists / Andra Spelar Sundström
Used drive : SlimtypeeBAU108 6 L Adapter: 1 ID: 0
Read mode : Secure
Utilize accurate stream : Yes
Defeat audio cache : Yes
Make use of C2 pointers : No
Read offset correction : 6
Overread into Lead-In and Lead-Out : No
Fill up missing offset samples with silence : Yes
Delete leading and trailing silent blocks : No
Null samples used in CRC calculations : Yes
Used interface : Native Win32 interface for Win NT & 2000
Used output format : User Defined Encoder
Selected bitrate : 1024 kBit/s
Quality : High
Add ID3 tag : No
Command line compressor : E:\toBeShared\flac.exe
Additional command line options : -8 -V
TOC of the extracted CD
Track | Start | Length | Start sector | End sector
---------------------------------------------------------
1 | 0:00.00 | 4:21.03 | 0 | 19577
2 | 4:21.03 | 4:01.16 | 19578 | 37668
3 | 8:22.19 | 6:12.41 | 37669 | 65609
4 | 14:34.60 | 3:44.10 | 65610 | 82419
5 | 18:18.70 | 5:55.17 | 82420 | 109061
6 | 24:14.12 | 3:45.68 | 109062 | 126004
7 | 28:00.05 | 4:55.63 | 126005 | 148192
8 | 32:55.68 | 5:10.61 | 148193 | 171503
9 | 38:06.54 | 4:13.07 | 171504 | 190485
10 | 42:19.61 | 3:55.44 | 190486 | 208154
11 | 46:15.30 | 4:47.31 | 208155 | 229710
12 | 51:02.61 | 5:30.55 | 229711 | 254515
Range status and errors
Selected range
Filename E:\toBeShared\Новая папка\Various Artists - Andra Spelar Sundström.wav
Peak level 98.8 %
Extraction speed 1.9 X
Range quality 100.0 %
Test CRC EE8F14D3
Copy CRC EE8F14D3
Copy OK
No errors occurred
AccurateRip summary
Track 1 accurately ripped (confidence 2) [968055F1] (AR v2)
Track 2 accurately ripped (confidence 2) [3674B4A9] (AR v2)
Track 3 accurately ripped (confidence 2) [173F3EBA] (AR v2)
Track 4 accurately ripped (confidence 2) [49036924] (AR v2)
Track 5 accurately ripped (confidence 2) [3530946F] (AR v2)
Track 6 accurately ripped (confidence 2) [DC43606F] (AR v2)
Track 7 accurately ripped (confidence 2) [96CED330] (AR v2)
Track 8 accurately ripped (confidence 2) [EBD09295] (AR v2)
Track 9 accurately ripped (confidence 2) [1DB27FAC] (AR v2)
Track 10 accurately ripped (confidence 2) [E41A9746] (AR v2)
Track 11 accurately ripped (confidence 2) [0C28EF12] (AR v2)
Track 12 accurately ripped (confidence 2) [5C4861CC] (AR v2)
All tracks accurately ripped
End of status report
---- CUETools DB Plugin V2.1.6
[CTDB TOCID: d1DSA309zYXacg7f4L0Pb7NmNtA-] disk not present in database
Submit result: d1DSA309zYXacg7f4L0Pb7NmNtA- has been uploaded
==== Log checksum 3347EE87168DBFBEB978EC6CA822381B1E1D661D535EA8A84ADD4BC70039830C ====
------------------------------------------------------------
Exact Audio Copy V1.3 from 2. September 2016
EAC extraction logfile from 16. January 2020, 22:45
Various Artists / Andra Spelar Sundström
Used drive : SlimtypeeBAU108 6 L Adapter: 1 ID: 0
Read mode : Secure
Utilize accurate stream : Yes
Defeat audio cache : Yes
Make use of C2 pointers : No
Read offset correction : 6
Overread into Lead-In and Lead-Out : No
Fill up missing offset samples with silence : Yes
Delete leading and trailing silent blocks : No
Null samples used in CRC calculations : Yes
Used interface : Native Win32 interface for Win NT & 2000
Used output format : User Defined Encoder
Selected bitrate : 1024 kBit/s
Quality : High
Add ID3 tag : No
Command line compressor : E:\toBeShared\flac.exe
Additional command line options : -8 -V
TOC of the extracted CD
Track | Start | Length | Start sector | End sector
---------------------------------------------------------
1 | 0:00.00 | 4:21.03 | 0 | 19577
2 | 4:21.03 | 4:01.16 | 19578 | 37668
3 | 8:22.19 | 6:12.41 | 37669 | 65609
4 | 14:34.60 | 3:44.10 | 65610 | 82419
5 | 18:18.70 | 5:55.17 | 82420 | 109061
6 | 24:14.12 | 3:45.68 | 109062 | 126004
7 | 28:00.05 | 4:55.63 | 126005 | 148192
8 | 32:55.68 | 5:10.61 | 148193 | 171503
9 | 38:06.54 | 4:13.07 | 171504 | 190485
10 | 42:19.61 | 3:55.44 | 190486 | 208154
11 | 46:15.30 | 4:47.31 | 208155 | 229710
12 | 51:02.61 | 5:30.55 | 229711 | 254515
Range status and errors
Selected range
Filename E:\toBeShared\Новая папка\Various Artists - Andra Spelar Sundström.wav
Peak level 98.8 %
Extraction speed 1.9 X
Range quality 100.0 %
Test CRC EE8F14D3
Copy CRC EE8F14D3
Copy OK
No errors occurred
AccurateRip summary
Track 1 accurately ripped (confidence 2) [968055F1] (AR v2)
Track 2 accurately ripped (confidence 2) [3674B4A9] (AR v2)
Track 3 accurately ripped (confidence 2) [173F3EBA] (AR v2)
Track 4 accurately ripped (confidence 2) [49036924] (AR v2)
Track 5 accurately ripped (confidence 2) [3530946F] (AR v2)
Track 6 accurately ripped (confidence 2) [DC43606F] (AR v2)
Track 7 accurately ripped (confidence 2) [96CED330] (AR v2)
Track 8 accurately ripped (confidence 2) [EBD09295] (AR v2)
Track 9 accurately ripped (confidence 2) [1DB27FAC] (AR v2)
Track 10 accurately ripped (confidence 2) [E41A9746] (AR v2)
Track 11 accurately ripped (confidence 2) [0C28EF12] (AR v2)
Track 12 accurately ripped (confidence 2) [5C4861CC] (AR v2)
All tracks accurately ripped
End of status report
---- CUETools DB Plugin V2.1.6
[CTDB TOCID: d1DSA309zYXacg7f4L0Pb7NmNtA-] disk not present in database
Submit result: d1DSA309zYXacg7f4L0Pb7NmNtA- has been uploaded
==== Log checksum 3347EE87168DBFBEB978EC6CA822381B1E1D661D535EA8A84ADD4BC70039830C ====

Содержание индексной карты (.CUE)

REM DATE 2010
REM DISCID AA0D410C
REM COMMENT "ExactAudioCopy v1.3"
PERFORMER "Various Artists"
TITLE "Andra Spelar Sundström"
REM COMPOSER ""
FILE "Various Artists - Andra Spelar Sundström.flac" WAVE
TRACK 01 AUDIO
TITLE "Blåöga"
PERFORMER "Lars Winnerbäck"
REM COMPOSER ""
INDEX 01 00:00:00
TRACK 02 AUDIO
TITLE "Sökte Gud"
PERFORMER "Ola Magnell"
REM COMPOSER ""
INDEX 01 04:21:03
TRACK 03 AUDIO
TITLE "När tåget går"
PERFORMER "Miss Li"
REM COMPOSER ""
INDEX 00 08:21:14
INDEX 01 08:22:19
TRACK 04 AUDIO
TITLE "Amors pilar"
PERFORMER "Love Antell"
REM COMPOSER ""
INDEX 00 14:33:68
INDEX 01 14:34:60
TRACK 05 AUDIO
TITLE "Onda barn"
PERFORMER "Emma Essinger"
REM COMPOSER ""
INDEX 00 18:17:62
INDEX 01 18:18:70
TRACK 06 AUDIO
TITLE "Hög kan bli låg"
PERFORMER "Miss Li"
REM COMPOSER ""
INDEX 00 24:12:50
INDEX 01 24:14:12
TRACK 07 AUDIO
TITLE "Johnny Dunder"
PERFORMER "Ola Magnell"
REM COMPOSER ""
INDEX 00 27:59:05
INDEX 01 28:00:05
TRACK 08 AUDIO
TITLE "Under isen"
PERFORMER "Miss Li"
REM COMPOSER ""
INDEX 00 32:54:53
INDEX 01 32:55:68
TRACK 09 AUDIO
TITLE "Vårsamba"
PERFORMER "Lars Winnerbäck"
REM COMPOSER ""
INDEX 00 38:04:28
INDEX 01 38:06:54
TRACK 10 AUDIO
TITLE "Teddybjörnen"
PERFORMER "Love Antell"
REM COMPOSER ""
INDEX 00 42:18:18
INDEX 01 42:19:61
TRACK 11 AUDIO
TITLE "Vit abergspredikan"
PERFORMER "Dundertåget"
REM COMPOSER ""
INDEX 00 46:13:65
INDEX 01 46:15:30
TRACK 12 AUDIO
TITLE "Fula gubben hitler"
PERFORMER "Little Marbles"
REM COMPOSER ""
INDEX 00 51:01:16
INDEX 01 51:02:61

Об альбоме (сборнике)

Сборник состоит из каверов сделанных известными современными шведскими исполнителями на песни шведского артиста Стефана Сундстёма (Stefan Sundström). Сборник был выпущен к 50-ти летнему юбилею Стефана Сундстрёма.
Дата релиза: 27 октября 2010 года.
Чуть более подробная информация о сборнике (на шведском языке) на сайте издателя: http://www.national.se/index.php?route=product/product&product_id=1505
[relizov.net].t15725.torrent 
Торрент: Зарегистрирован [ 2020-04-10 18:01 ] · E7888E4007186D6BB3639CC601738B2F34642727

Скачать .torrent

Скачать

20 KB

Статус: проверено
Скачан: 0 раз
Размер: 470 MB  ·  Тип торрента
terms.php
Профиль [ЛС]
Показать сообщения:    

Текущее время: 13-Июл 09:01

Часовой пояс: UTC ± 0



Вы не можете начинать темы
Вы не можете отвечать на сообщения
Вы не можете редактировать свои сообщения
Вы не можете удалять свои сообщения
Вы не можете голосовать в опросах
Вы не можете прикреплять файлы к сообщениям
Вы можете скачивать файлы