Статистика раздачи
Размер:  20,04 GB   |    Зарегистрирован:  1 месяц 10 дней   |    Скачан:  0 раз
DL-List: Нет

Полного источника не было: Никогда

 
     
 
 

MAGNAT ®

Пол:
Мужской
Стаж:
1 год 2 месяца
Сообщений:
7952

Убийство по Фрейду | Венская кровь
Vienna Blood

«***»
- Страна: Великобритания, Австрия
Год выпуска: 2019
Жанр: ужасы, боевик, триллер, детектив
Продолжительность: ~ 00:45:00 серия-Перевод: Профессиональный (многоголосый закадровый) LostFilm-Премьера (Россия): 10 февраля 2020
Премьера (мир): 18 ноября 2019-Режиссер: Умут Даг, Роберт Дорнхельм
В главных ролях: Мэттью Бирд, Юрген Маурер, Амелия Баллмор, Джессика Де Гау, Джозеф Эллерс, Симон Хатцль, Конлет Хилл, Шарлин МакКенна, Оливер Штоковски, Рафаэль фон Бэрген-Описание фильма:
Вена — столица тысячелетней империи и рай для педантов. Фрейд читает свои лекции, выставки Климта полны ценителей искусства, Густав Малер дает концерты, и для всего есть правила. Но под этой красотой цветет и пахнет теневое царство, которое город пытается укрыть от глаз посторонних. Медиумы-шарлатаны, грязные кабаре, кровожадные маньяки и прочий сброд регулярно подкидывают местной полиции непростую работу. Одним из тружеников мрачного венского тыла является инспектор Оскар Рейнхардт (Юрген Маурер), которому поручают расследовать дело о загадочном самоубийстве женщины в запертой комнате. В качестве помощника ему навязывают стажера Макса Либермана (Мэттью Бирд) — большого поклонника основоположника современного психоанализа Зигмунда Фрейда и весьма самоуверенного джентльмена. Макс мечтает исследовать психику преступников на практике, а невезучему в последнее время Оскару очень нужно хоть одно раскрытое дело. И если поначалу им никак не удается сработаться из-за несхожести характеров и гордыни, то вскоре они поймут, что только в команде смогут найти того, кто совершил злодеяние. Правда, пока они перекидываются завуалированными оскорблениями и пробуют на прочность нервы друг друга, убийца не дремлет и по скрипучей лестнице уже поднимается в каморку к очередной жертве, чтобы размозжить ей череп деревянным молотом...-

Качество видео: WEB-DL 1080p
Формат: MKV
Видео: AVC, 1920 x 1080 (1.778), 25.000 fps, ~10000 kbps
Аудио Rus: AC-3, 48 kHz, 2 ch, 384 kbps |LostFilm|
Аудио Eng: E-AC-3, 48 kHz, 6 ch, 640 kbps |Original|
Субтитры: Eng (SDH)
Реклама: Отсутствует-

Media Info

Общее
Уникальный идентификатор : 156679850246392920889490048973867719728 (0x75DF7107EC97F0BC6720555E53321C30)
Полное имя : E:\_Сериалы\_Сериалы\Венская кровь\Vienna.Blood.S01.WEBDL.1080p.LF.RGzsRutracker\Vienna.Blood.S01E01.Part1.WEB-DL.1080p.LF.RGzsRutracker.mkv
Формат : Matroska
Версия формата : Version 4
Размер файла : 3,38 Гбайт
Продолжительность : 45 м. 29 с.
Общий поток : 10,6 Мбит/сек
Дата кодирования : UTC 2020-03-30 20:00:07
Программа кодирования : mkvmerge v44.0.0 ('Domino') 64-bit
Библиотека кодирования : libebml v1.3.10 + libmatroska v1.5.2
Видео
Идентификатор : 1
Формат : AVC
Формат/Информация : Advanced Video Codec
Профиль формата : High@L4
Настройки формата : CABAC / 4 Ref Frames
Параметр CABAC формата : Да
Параметр RefFrames формата : 4 кадра
Идентификатор кодека : V_MPEG4/ISO/AVC
Продолжительность : 45 м. 29 с.
Вид битрейта : Постоянный
Битрейт : 10000 Кбит/сек
Ширина : 1920 пикселей
Высота : 1080 пикселей
Соотношение сторон : 16:9
Режим частоты кадров : Постоянный
Частота кадров : 25,000 кадров/сек
Цветовое пространство : YUV
Субдискретизация насыщенности : 4:2:0
Битовая глубина : 8 бит
Тип развёртки : Прогрессивная
Бит/(Пиксели*Кадры) : 0.193
Размер потока : 3,05 Гбайт (90%)
Язык : English
Default : Да
Forced : Нет
Цветовой диапазон : Limited
Основные цвета : BT.709
Характеристики трансфера : BT.709
Коэффициенты матрицы : BT.709
Аудио #1
Идентификатор : 2
Формат : AC-3
Формат/Информация : Audio Coding 3
Коммерческое название : Dolby Digital
Идентификатор кодека : A_AC3
Продолжительность : 45 м. 29 с.
Вид битрейта : Постоянный
Битрейт : 384 Кбит/сек
Каналы : 2 канала
ChannelLayout : L R
Частота : 48,0 КГц
Частота кадров : 31,250 кадров/сек (1536 SPF)
Метод сжатия : С потерями
Размер потока : 125 Мбайт (4%)
Язык : Russian
ServiceKind/String : Complete Main
Default : Да
Forced : Нет
Аудио #2
Идентификатор : 3
Формат : E-AC-3
Формат/Информация : Enhanced AC-3
Коммерческое название : Dolby Digital Plus
Идентификатор кодека : A_EAC3
Продолжительность : 45 м. 29 с.
Вид битрейта : Постоянный
Битрейт : 640 Кбит/сек
Каналы : 6 каналов
ChannelLayout : L R C LFE Ls Rs
Частота : 48,0 КГц
Частота кадров : 31,250 кадров/сек (1536 SPF)
Метод сжатия : С потерями
Размер потока : 208 Мбайт (6%)
Язык : English
ServiceKind/String : Complete Main
Default : Нет
Forced : Нет
Текст
Идентификатор : 4
Формат : UTF-8
Идентификатор кодека : S_TEXT/UTF8
Идентификатор кодека/Информация : UTF-8 Plain Text
Продолжительность : 44 м. 32 с.
Битрейт : 53 бит/сек
ElementCount : 651
Размер потока : 17,4 Кбайт (0%)
Заголовок : SDH
Язык : English
Default : Нет
Forced : Нет
Меню
00:00:00.000 : en:Disclaimer
00:00:06.000 : en:Opening Credits
00:00:34.000 : en:Title Sequence
00:00:43.000 : en:Scene 5
00:04:35.000 : en:Scene 6
00:09:46.000 : en:Scene 7
00:16:28.000 : en:Scene 8
00:20:23.000 : en:Scene 9
00:24:55.000 : en:Scene 10
00:29:24.000 : en:Scene 11
00:31:36.000 : en:Scene 12
00:35:13.000 : en:Scene 13
00:45:07.000 : en:End Credits
-

Скриншоты

-
[relizov.net].t17826.torrent 
Торрент: Зарегистрирован [ 2020-04-25 10:48 ] · 76C63F0CEAC22EF29748107B82FEFC82DE64C9F4

Скачать .torrent

Скачать

51 KB

Статус: проверено
Скачан: 0 раз
Размер: 20,04 GB  ·  Тип торрента
terms.php
Профиль [ЛС]
Показать сообщения:    

Текущее время: 06-Июн 01:19

Часовой пояс: UTC ± 0



Вы не можете начинать темы
Вы не можете отвечать на сообщения
Вы не можете редактировать свои сообщения
Вы не можете удалять свои сообщения
Вы не можете голосовать в опросах
Вы не можете прикреплять файлы к сообщениям
Вы можете скачивать файлы