Статистика раздачи
Нет
 
     
 
 

MAGNAT ®

Пол:
Мужской
Стаж:
1 год 3 месяца
Сообщений:
8775

Ninety one Год выпуска: 2017
Страна: Казахстан
Жанр: мелодрама, приключения, музыка
Продолжительность: 01:31:09
Перевод: Субтитры-Режиссёр: Аскар Узабаев
В ролях: Азамат Зенкаев, Данияр Кулумшин, Дулат Мухаметкалиев, Азамат Ашмакын, Батырхан Маликов-О фильме: Фильм воссоздает события становления знаменитой казахстанской группы «Ninety one». Ребята испытывают сильное давление и встречают угрозы со стороны завистников и противников группы. Теперь им нужно найти в себе силы, чтобы противостоять тем нападкам, которые не дают покоя. Они бросают вызов действительности и пытаются доказать, что в творчестве, как и в жизни, необходимо бороться до конца.-
Семпл: http://sendfile.su/1481339-Качество: HDTV 1080i [Хабар HD] (эфир 09.03.2019)
Формат: TS
Видео: AVC, 1920x1080 (16:9), 25 fps, ~6648 kbps, 0.128 bit/pixel
Аудио: [KAZ] 48 kHz, MP2, 2 ch, 192 kbps
Формат субтитров: hardsub (неотключаемые)

Mediainfo

General
ID : 1 (0x1)
Complete name : H:\Раздачи\Ninety One (2017) [HDTV 1080i].ts
Format : MPEG-TS
File size : 4.58 GiB
Duration : 1 h 31 min
Overall bit rate mode : Variable
Overall bit rate : 7 197 kb/s
Video
ID : 67 (0x43)
Menu ID : 1 (0x1)
Format : AVC
Format/Info : Advanced Video Codec
Format profile : High@L4
Format settings : CABAC / 3 Ref Frames
Format settings, CABAC : Yes
Format settings, ReFrames : 3 frames
Format settings, GOP : M=4, N=32
Codec ID : 27
Duration : 1 h 31 min
Bit rate : 6 648 kb/s
Width : 1 920 pixels
Height : 1 080 pixels
Display aspect ratio : 16:9
Frame rate : 25.000 FPS
Standard : Component
Color space : YUV
Chroma subsampling : 4:2:0
Bit depth : 8 bits
Scan type : Interlaced
Scan type, store method : Separated fields
Scan order : Top Field First
Bits/(Pixel*Frame) : 0.128
Stream size : 4.23 GiB (92%)
Color range : Limited
Color primaries : BT.709
Transfer characteristics : BT.709
Matrix coefficients : BT.709
Audio
ID : 68 (0x44)
Menu ID : 1 (0x1)
Format : MPEG Audio
Format version : Version 1
Format profile : Layer 2
Codec ID : 3
Duration : 1 h 31 min
Bit rate mode : Constant
Bit rate : 192 kb/s
Channel(s) : 2 channels
Sampling rate : 48.0 kHz
Frame rate : 41.667 FPS (1152 SPF)
Compression mode : Lossy
Stream size : 125 MiB (3%)
Language : English

Скриншоты

Профиль [ЛС]
Показать сообщения:    

Текущее время: 02-Июл 06:33

Часовой пояс: UTC ± 0



Вы не можете начинать темы
Вы не можете отвечать на сообщения
Вы не можете редактировать свои сообщения
Вы не можете удалять свои сообщения
Вы не можете голосовать в опросах
Вы не можете прикреплять файлы к сообщениям
Вы не можете скачивать файлы