Статистика раздачи
Размер:  2,27 GB   |    Зарегистрирован:  6 дней   |    Скачан:  0 раз
DL-List: Нет

Полного источника не было: Никогда

 
     
 
 

MAGNAT ®

Пол:
Мужской
Стаж:
1 год 3 месяца
Сообщений:
8775

Война кланов / Rise of the Clans
Дата/Год выпуска: 2018
Страна: Великобритания, BBC Scotland
Жанр: Документальный, история
Продолжительность: 3 х ~00:49:56
Перевод: Профессиональный (двухголосый закадровый)
Доп. инфо о переводе: СВ-Дубль
Русские субтитры: есть
Формат субтитров: softsub (SRT)
Доп. информация о субтитрах: СВ-Дубль
Режиссер: Крэйг Коллинсон / Craig Collinson
Телеканал: Культура
Описание: Древние кланы Шотландии известны как одни из самых легендарных воинов в истории - жестокие племена, образованные дикими горами и селами страны. Это их захватывающая история героизма и злодейства с участием самых знаковых персонажей Шотландии - от Роберта Брюса до Марии, королевы шотландцев. Узнайте, как объединенные кланы победили величайшую военную мощь Европы, чтобы претендовать на независимость Шотландии, и как они использовали свое влияние, чтобы свергнуть правителей и изменить ход истории. Это настоящая шотландская игра престолов: эпическая борьба за власть, рассказанная с точки зрения враждующих кланов.
качество: DVB
формат: MKV
Видео: 720x576 (16:9) AVC (H.264) High@L3, ~ 2082 kbps, 25 fps
Аудио: Русский 48 kHz, MPEG Layer 2, 2 ch, ~192.00 kbps avg

Список выпусков/серий

01. Превосходство Брюса / The Bruce Supremacy
В середине лета 1314 года вся Шотландия затаила дыхание. Многочисленная армия англичан перешла границу и двинулась на север, намереваясь дать бой мятежному королю Роберту Брюсу. Брюс уже восемь лет регулярно наносил англичанам неожиданные удары и одерживал победы. Важнейшим условием этого успеха была поддержка таких могучих кланов как Кэмпбеллы и Макдональды. На рассвете все они приготовились к решающей битве с англичанами. Если победит Брюс, его клан обретёт земли и могущество. Но англичан больше в три раза. А если шотландцы проиграют, они потеряют всё.
02. Брат на брата / Brothers at War
Когда-то давно жил в Шотландии могучий вождь клана, который возвысился над остальными и обрёл шотландский трон. Его звали Роберт Стюарт. Чтобы управлять Шотландией и непокорными кланами, Роберт наделил каждого из своих четырёх сыновей частью королевства и королевской властью. Но смерть Роберта изменила ситуацию. Между братьям началась яростная борьба, ведь каждый хотел стать королём. Стюарты, как голодные львы, рыскали по всему королевству, борясь за власть, мечтая о троне, и постепенно уничтожали друг друга. Кто из четверых одержит победу? Кто продолжит королевский род Стюартов?
03. Преданная королева / A Queen Betrayed
Город Лит. Тысяча пятьсот шестьдесят первый год. Марии было всего пять лет, когда её отправили во Францию – подальше от английского короля. Но теперь Мария Стюарт, королева Шотландии, вернулась. Юная королева ничего не знает о жизни в Шотландии. Марию встречает её старший брат – лорд Джеймс Стюарт. Более десяти лет назад, Шотландия была католическим королевством. Вернувшись, Мария узнала, что половина её поданных – протестанты, включая брата. Но "протестантская революция" не победила до конца. Возникла опасность развязывания религиозной войны между кланами. Чью сторону займёт Мария?

MediaInfo

Complete name : F:\Наладки\Война кланов\01. Превосходство Брюса.mkv
Format : Matroska
Format version : Version 4
File size : 829 MiB
Duration : 49 min 56 s
Overall bit rate : 2 320 kb/s
Encoded date : UTC 2020-03-29 08:37:04
Writing application : mkvmerge v6.6.0 ('The Edge Of The In Between') built on Dec 1 2013 17:55:00
Writing library : libebml v1.3.0 + libmatroska v1.4.1
Video
ID : 1
Format : AVC
Format/Info : Advanced Video Codec
Format profile : Main@L3
Format settings : CABAC / 4 Ref Frames
Format settings, CABAC : Yes
Format settings, Reference : 4 frames
Codec ID : V_MPEG4/ISO/AVC
Duration : 49 min 56 s
Bit rate : 2 082 kb/s
Width : 720 pixels
Height : 576 pixels
Display aspect ratio : 16:9
Frame rate mode : Constant
Frame rate : 25.000 FPS
Standard : Component
Color space : YUV
Chroma subsampling : 4:2:0
Bit depth : 8 bits
Scan type : Interlaced
Scan type, store method : Interleaved fields
Scan order : Top Field First
Bits/(Pixel*Frame) : 0.201
Stream size : 744 MiB (90%)
Default : Yes
Forced : No
Color range : Limited
Color primaries : BT.601 PAL
Transfer characteristics : BT.470 System B/G
Matrix coefficients : BT.470 System B/G
Audio
ID : 2
Format : MPEG Audio
Format version : Version 1
Format profile : Layer 2
Codec ID : A_MPEG/L2
Codec ID/Hint : MP2
Duration : 49 min 56 s
Bit rate mode : Constant
Bit rate : 192 kb/s
Channel(s) : 2 channels
Sampling rate : 48.0 kHz
Compression mode : Lossy
Stream size : 68.6 MiB (8%)
Language : Russian
Default : Yes
Forced : No
Text
ID : 3
Format : UTF-8
Codec ID : S_TEXT/UTF8
Codec ID/Info : UTF-8 Plain Text
Title : СВ-Дубль
Language : Russian
Default : No
Forced : No
Complete name : F:\Наладки\Война кланов\02. Брат на брата.mkv
Format : Matroska
Format version : Version 4
File size : 778 MiB
Duration : 51 min 59 s
Overall bit rate : 2 092 kb/s
Encoded date : UTC 2020-03-29 08:40:03
Writing application : mkvmerge v6.6.0 ('The Edge Of The In Between') built on Dec 1 2013 17:55:00
Writing library : libebml v1.3.0 + libmatroska v1.4.1
Video
ID : 1
Format : AVC
Format/Info : Advanced Video Codec
Format profile : Main@L3
Format settings : CABAC / 4 Ref Frames
Format settings, CABAC : Yes
Format settings, Reference : 4 frames
Codec ID : V_MPEG4/ISO/AVC
Duration : 51 min 59 s
Bit rate : 1 858 kb/s
Width : 720 pixels
Height : 576 pixels
Display aspect ratio : 16:9
Frame rate mode : Constant
Frame rate : 25.000 FPS
Standard : Component
Color space : YUV
Chroma subsampling : 4:2:0
Bit depth : 8 bits
Scan type : Interlaced
Scan type, store method : Separated fields
Scan order : Top Field First
Bits/(Pixel*Frame) : 0.179
Stream size : 691 MiB (89%)
Default : Yes
Forced : No
Color range : Limited
Color primaries : BT.601 PAL
Transfer characteristics : BT.470 System B/G
Matrix coefficients : BT.470 System B/G
Audio
ID : 2
Format : MPEG Audio
Format version : Version 1
Format profile : Layer 2
Codec ID : A_MPEG/L2
Codec ID/Hint : MP2
Duration : 51 min 59 s
Bit rate mode : Constant
Bit rate : 192 kb/s
Channel(s) : 2 channels
Sampling rate : 48.0 kHz
Compression mode : Lossy
Stream size : 71.4 MiB (9%)
Language : Russian
Default : Yes
Forced : No
Text
ID : 3
Format : UTF-8
Codec ID : S_TEXT/UTF8
Codec ID/Info : UTF-8 Plain Text
Title : СВ-Дубль
Language : Russian
Default : No
Forced : No
Complete name : F:\Наладки\Война кланов\03. Преданная королева.mkv
Format : Matroska
Format version : Version 4
File size : 718 MiB
Duration : 51 min 59 s
Overall bit rate : 1 931 kb/s
Encoded date : UTC 2020-03-29 08:40:59
Writing application : mkvmerge v6.6.0 ('The Edge Of The In Between') built on Dec 1 2013 17:55:00
Writing library : libebml v1.3.0 + libmatroska v1.4.1
Video
ID : 1
Format : AVC
Format/Info : Advanced Video Codec
Format profile : Main@L3
Format settings : CABAC / 4 Ref Frames
Format settings, CABAC : Yes
Format settings, Reference : 4 frames
Codec ID : V_MPEG4/ISO/AVC
Bit rate : 1 700 kb/s
Width : 720 pixels
Height : 576 pixels
Display aspect ratio : 16:9
Frame rate mode : Variable
Original frame rate : 25.000 FPS
Standard : Component
Color space : YUV
Chroma subsampling : 4:2:0
Bit depth : 8 bits
Scan type : Interlaced
Scan type, store method : Separated fields
Scan order : Top Field First
Default : Yes
Forced : No
Color range : Limited
Color primaries : BT.601 PAL
Transfer characteristics : BT.470 System B/G
Matrix coefficients : BT.470 System B/G
Audio
ID : 2
Format : MPEG Audio
Format version : Version 1
Format profile : Layer 2
Codec ID : A_MPEG/L2
Codec ID/Hint : MP2
Duration : 51 min 59 s
Bit rate mode : Constant
Bit rate : 192 kb/s
Channel(s) : 2 channels
Sampling rate : 48.0 kHz
Compression mode : Lossy
Stream size : 71.4 MiB (10%)
Language : Russian
Default : Yes
Forced : No
Text
ID : 3
Format : UTF-8
Codec ID : S_TEXT/UTF8
Codec ID/Info : UTF-8 Plain Text
Title : СВ-Дубль
Language : Russian
Default : No
Forced : No
[relizov.net].t21149.torrent 
Торрент: Зарегистрирован [ 2020-06-25 19:14 ] · B609F168F985D807178E5E419ADDA3F39AA93444

Скачать .torrent

Скачать

12 KB

Статус: проверено
Скачан: 0 раз
Размер: 2,27 GB  ·  Тип торрента
terms.php
Профиль [ЛС]
Показать сообщения:    

Текущее время: 02-Июл 05:53

Часовой пояс: UTC ± 0



Вы не можете начинать темы
Вы не можете отвечать на сообщения
Вы не можете редактировать свои сообщения
Вы не можете удалять свои сообщения
Вы не можете голосовать в опросах
Вы не можете прикреплять файлы к сообщениям
Вы можете скачивать файлы