Статистика раздачи
Качаю: [ 1 ]
Размер:  426 MB   |    Зарегистрирован:  29 дней   |    Скачан:  0 раз

Полного источника не было: 20 часов

 
     
 
 

sergej644 ®

Пол:
Мужской
Стаж:
30 дней
Сообщений:
1

Откуда: Klaipeda

-Deep Purple - Whoosh! (Limited Edition)--
Год издания: 2020
Страна: UK
Жанр: Hard Rock
Продолжительность: 00:51:38-Лейбл издания: earMusic
Страна-выпуска диска: Germany
Номер по каталогу: 0214135EMU-Формат: FLAC
Битрейт аудио: Lossless
Тип рипа: image +.cue
Наличие сканов в содержимом раздачи: да
-

Трэклист

01. Throw My Bones (3:40)
02. Drop the Weapon (4:23)
03. We're All the Same in the Dark (3:44)
04. Nothing at All (4:43)
05. No Need to Shout (3:31)
06. Step by Step (3:34)
07. What the What (3:32)
08. The Long Way Round (5:40)
09. The Power of the Moon (4:09)
10. Remission Possible (1:39)
11. Man Alive (5:35)
12. And the Address (3:35)
13. Dancing in My Sleep (3:54)

-

Лог создания рипа

Exact Audio Copy V1.5 from 20. February 2020
EAC extraction logfile from 8. August 2020, 15:04
Deep Purple / Whoosh! (Limited Edition)
Used drive  : TSSTcorpBDDVDW SE-506CB   Adapter: 1  ID: 1
Read mode               : Secure
Utilize accurate stream : Yes
Defeat audio cache      : Yes
Make use of C2 pointers : No
Read offset correction                      : 6
Overread into Lead-In and Lead-Out          : No
Fill up missing offset samples with silence : Yes
Delete leading and trailing silent blocks   : No
Null samples used in CRC calculations       : Yes
Used interface                              : Native Win32 interface for Win NT & 2000
Used output format              : User Defined Encoder
Selected bitrate                : 1024 kBit/s
Quality                         : High
Add ID3 tag                     : No
Command line compressor         : C:\Program Files (x86)\Exact Audio Copy\Flac\flac.exe
Additional command line options : -V -8 -T "Date=%year%" -T "Genre=%genre%" %source%
TOC of the extracted CD
     Track |   Start  |  Length  | Start sector | End sector
    ---------------------------------------------------------
        1  |  0:00.00 |  3:39.52 |         0    |    16476
        2  |  3:39.52 |  4:23.03 |     16477    |    36204
        3  |  8:02.55 |  3:44.00 |     36205    |    53004
        4  | 11:46.55 |  4:42.65 |     53005    |    74219
        5  | 16:29.45 |  3:30.38 |     74220    |    90007
        6  | 20:00.08 |  3:34.26 |     90008    |   106083
        7  | 23:34.34 |  3:32.37 |    106084    |   122020
        8  | 27:06.71 |  5:39.56 |    122021    |   147501
        9  | 32:46.52 |  4:08.63 |    147502    |   166164
       10  | 36:55.40 |  1:38.49 |    166165    |   173563
       11  | 38:34.14 |  5:35.35 |    173564    |   198723
       12  | 44:09.49 |  3:35.18 |    198724    |   214866
       13  | 47:44.67 |  3:53.42 |    214867    |   232383
Range status and errors
Selected range
     Filename C:\EAC\Deep Purple - Whoosh! (Limited Edition).wav
     Peak level 99.7 %
     Extraction speed 2.1 X
     Range quality 99.9 %
     Test CRC D27A11DA
     Copy CRC D27A11DA
     Copy OK
No errors occurred
AccurateRip summary
Track  1  not present in database
Track  2  not present in database
Track  3  not present in database
Track  4  not present in database
Track  5  not present in database
Track  6  not present in database
Track  7  not present in database
Track  8  not present in database
Track  9  not present in database
Track 10  not present in database
Track 11  not present in database
Track 12  not present in database
Track 13  not present in database
None of the tracks are present in the AccurateRip database
End of status report

Индексная карта (non-compilant .cue)

REM GENRE "Hard Rock"
REM DATE 2020
REM DISCID AF0C1A0D
REM COMMENT "ExactAudioCopy v1.5"
PERFORMER "Deep Purple"
TITLE "Whoosh! (Limited Edition)"
FILE "Deep Purple - Whoosh! (Limited Edition).flac" WAVE
  TRACK 01 AUDIO
    TITLE "Throw My Bones"
    PERFORMER "Deep Purple"
    INDEX 01 00:00:00
  TRACK 02 AUDIO
    TITLE "Drop the Weapon"
    PERFORMER "Deep Purple"
    INDEX 01 03:39:52
  TRACK 03 AUDIO
    TITLE "We're All the Same in the Dark"
    PERFORMER "Deep Purple"
    INDEX 01 08:02:55
  TRACK 04 AUDIO
    TITLE "Nothing at All"
    PERFORMER "Deep Purple"
    INDEX 01 11:46:55
  TRACK 05 AUDIO
    TITLE "No Need to Shout"
    PERFORMER "Deep Purple"
    INDEX 01 16:29:45
  TRACK 06 AUDIO
    TITLE "Step by Step"
    PERFORMER "Deep Purple"
    INDEX 01 20:00:08
  TRACK 07 AUDIO
    TITLE "What the What"
    PERFORMER "Deep Purple"
    INDEX 01 23:34:34
  TRACK 08 AUDIO
    TITLE "The Long Way Round"
    PERFORMER "Deep Purple"
    INDEX 01 27:06:71
  TRACK 09 AUDIO
    TITLE "The Power of the Moon"
    PERFORMER "Deep Purple"
    INDEX 01 32:46:52
  TRACK 10 AUDIO
    TITLE "Remission Possible"
    PERFORMER "Deep Purple"
    INDEX 01 36:55:40
  TRACK 11 AUDIO
    TITLE "Man Alive"
    PERFORMER "Deep Purple"
    INDEX 01 38:34:14
  TRACK 12 AUDIO
    TITLE "And the Address"
    PERFORMER "Deep Purple"
    INDEX 01 44:09:49
  TRACK 13 AUDIO
    TITLE "Dancing in My Sleep"
    PERFORMER "Deep Purple"
    INDEX 01 47:44:67
-

для ознакомления:

https://www.youtube.com/watch?v=ojHRoKzQwfE
--
[relizov.net].t21258.torrent 
Торрент: Зарегистрирован [ 2020-08-27 15:33 ] · 4BBCCD8DC38F6C82B2B39013AD8DDE5BD09155EC

Скачать .torrent

Скачать

18 KB

Статус: проверено
Скачан: 0 раз
Размер: 426 MB  ·  Тип торрента
terms.php
Профиль [ЛС]
Показать сообщения:    

Текущее время: 26-Сен 14:23

Часовой пояс: UTC ± 0



Вы не можете начинать темы
Вы не можете отвечать на сообщения
Вы не можете редактировать свои сообщения
Вы не можете удалять свои сообщения
Вы не можете голосовать в опросах
Вы не можете прикреплять файлы к сообщениям
Вы можете скачивать файлы