Статистика раздачи
Нет
 
     
 
 

K15 ®

Пол:
Мужской
Стаж:
8 месяцев 3 дня
Сообщений:
142

Информация о фильме
Название: Дивизия
Оригинальное название: A Divisão
Год выхода: 2020
Жанр: Боевик, триллер, криминал
Режиссер: Висенте Аморим
В ролях: Эром Кордейру, Тельмо Фернандес, Ванесса Жербелли, Брюс Гомлевски, Силвиу Гиндани, Наталия Лейдж, Маркус Палмейра, Ханна Романацци, Рафаэль Тейшейра, Далтон Виг
О фильме: Фильм основан на реальных событиях. В девяностые годы Рио-де-Жанейро был потрясен огромной серией похищений. Силовики совершенно не знают, что делать, в связи с чем они были вынуждены обратиться за помощью к скандально известным агентам, чтобы те помогли избавиться не только от непосредственно бандитов, но и также от полиции.

Страна: Бразилия
Студия: AfroReggae Audiovisual, Globo Filmes, Hungry Man
Продолжительность: 02:13:50
Перевод: Любительский многоголосый | @MUZOBOZ@
Файл
Кодек: MPEG-4 AVC
Качество: BDRip 1080p
Видео: 4000 Кбит/с, 1920x804, 24.000 кадр/с
Аудио #1: AC3, 48 Гц, 192 Кбит/сек, 2 ch (L + R) | MVO | @MUZOBOZ@
Аудио #2: AC3, 48 Гц, 640 Кбит/сек, 6 ch (L C R, + L R, LFE) | Португальский

MI

Общее
Уникальный идентификатор : 275613430228440343872706440513593191043 (0xCF593740FA2A701C5B38DB3BC8AAAA83)
Полное имя : D:ТоррентыDiviziya.2020.x264.BDRip(1080p)-MediaBit.mkv
Формат : Matroska
Версия формата : Version 4
Размер файла : 4,52 Гбайт
Продолжительность : 2 ч. 13 м.
Общий поток : 4 830 Кбит/сек
Название фильма : Дивизия / A Divisão (2020)
Дата кодирования : UTC 2020-09-14 13:33:59
Программа кодирования : mkvmerge v25.0.0 ('Prog Noir') 64-bit
Библиотека кодирования : libebml v1.3.6 + libmatroska v1.4.9
Видео
Идентификатор : 1
Формат : AVC
Формат/Информация : Advanced Video Codec
Профиль формата : High@L4.1
Настройки формата : CABAC / 5 Ref Frames
Параметр CABAC формата : Да
Параметр RefFrames формата : 5 кадров
Идентификатор кодека : V_MPEG4/ISO/AVC
Продолжительность : 2 ч. 13 м.
Битрейт : 4 000 Кбит/сек
Ширина : 1 920 пикселей
Высота : 804 пикселя
Соотношение сторон : 2,40:1
Режим частоты кадров : Постоянный
Частота кадров : 24,000 кадра/сек
Цветовое пространство : YUV
Субдискретизация насыщенности : 4:2:0
Битовая глубина : 8 бит
Тип развёртки : Прогрессивная
Бит/(Пиксели*Кадры) : 0.108
Размер потока : 3,74 Гбайт (83%)
Заголовок : COMANDO
Библиотека кодирования : x264 core 157 r2969 d4099dd
Настройки программы : cabac=1 / ref=5 / deblock=1:-1:-1 / analyse=0x3:0x133 / me=umh / subme=10 / psy=1 / psy_rd=1.00:0.15 / mixed_ref=1 / me_range=24 / chroma_me=1 / trellis=2 / 8x8dct=1 / cqm=0 / deadzone=21,11 / fast_pskip=1 / chroma_qp_offset=-3 / threads=12 / lookahead_threads=3 / sliced_threads=0 / nr=0 / decimate=1 / interlaced=0 / bluray_compat=0 / constrained_intra=0 / bframes=10 / b_pyramid=2 / b_adapt=2 / b_bias=0 / direct=3 / weightb=1 / open_gop=0 / weightp=2 / keyint=240 / keyint_min=24 / scenecut=40 / intra_refresh=0 / rc_lookahead=60 / rc=2pass / mbtree=1 / bitrate=4000 / ratetol=1.0 / qcomp=0.60 / qpmin=0 / qpmax=69 / qpstep=4 / cplxblur=20.0 / qblur=0.5 / vbv_maxrate=62500 / vbv_bufsize=78125 / nal_hrd=none / filler=0 / ip_ratio=1.40 / aq=1:1.00
Язык : Portuguese
Default : Да
Forced : Нет
Цветовой диапазон : Limited
Основные цвета : BT.709
Характеристики трансфера : BT.709
Коэффициенты матрицы : BT.709
Аудио #1
Идентификатор : 2
Формат : AC-3
Формат/Информация : Audio Coding 3
Коммерческое название : Dolby Digital
Идентификатор кодека : A_AC3
Продолжительность : 2 ч. 13 м.
Вид битрейта : Постоянный
Битрейт : 192 Кбит/сек
Каналы : 2 канала
Channel layout : L R
Частота : 48,0 КГц
Частота кадров : 31,250 кадров/сек (1536 SPF)
Метод сжатия : С потерями
Размер потока : 184 Мбайт (4%)
Заголовок : MVO [@MUZOBOZ@] MediaBit
Язык : Russian
Service kind : Complete Main
Default : Да
Forced : Нет
Аудио #2
Идентификатор : 3
Формат : AC-3
Формат/Информация : Audio Coding 3
Коммерческое название : Dolby Digital
Идентификатор кодека : A_AC3
Продолжительность : 2 ч. 13 м.
Вид битрейта : Постоянный
Битрейт : 640 Кбит/сек
Каналы : 6 каналов
Channel layout : L R C LFE Ls Rs
Частота : 48,0 КГц
Частота кадров : 31,250 кадров/сек (1536 SPF)
Метод сжатия : С потерями
Размер потока : 613 Мбайт (13%)
Заголовок : Original
Язык : Portuguese
Service kind : Complete Main
Default : Нет
Forced : Нет
Меню
00:00:00.000 : :Capítulo 01
00:09:12.750 : :Capítulo 02
00:18:03.667 : :Capítulo 03
00:29:26.417 : :Capítulo 04
00:39:27.708 : :Capítulo 05
00:51:27.542 : :Capítulo 06
01:04:13.000 : :Capítulo 07
01:14:59.083 : :Capítulo 08
01:28:38.417 : :Capítulo 09
01:39:52.583 : :Capítulo 10
01:50:36.792 : :Capítulo 11
02:02:53.917 : :Capítulo 12

Скриншоты

Релиз от:
Профиль [ЛС]
Показать сообщения:    

Текущее время: 26-Сен 14:29

Часовой пояс: UTC ± 0



Вы не можете начинать темы
Вы не можете отвечать на сообщения
Вы не можете редактировать свои сообщения
Вы не можете удалять свои сообщения
Вы не можете голосовать в опросах
Вы не можете прикреплять файлы к сообщениям
Вы не можете скачивать файлы