Статистика раздачи
Нет
 
     
 
 

K15 ®

Пол:
Мужской
Стаж:
8 месяцев 5 дней
Сообщений:
146

Информация о фильме
Название: Английские псы в Бангкоке
Оригинальное название: English Dogs
Год выхода: 2020
Жанр: Боевик, криминал
Режиссер: Таффи Эдвардс
В ролях: Рон Смуренбург, Байрон Гибсон, Оуэн О'Брайен, Дэмиэн Мевис, Дин Александру, Александр Уинтерс, Марк Стас, Дэвид Блазейко, Ли Барвелл, Ли Мэйсон
О фильме: Некий солдат и кикбоксёр из криминального мира объединяют свои усилия, чтобы стать крупнейшими нелегальными поставщиками стероидов в Азии, неся хаос и разрушение на улицы Таиланда.

Страна: Великобритания
Студия: Crazy Rooster Films, Zillwood films
Продолжительность: 01:25:09
Перевод: Любительский многоголосый | @MUZOBOZ@
Файл
Кодек: XviD
Качество: WEB-DLRip
Видео: 2106 Кбит/с, 720x304, 23.976 кадр/с
Звук: AC3, 48 Гц, 192 Кбит/сек, 2 ch (L + R) | MVO | @MUZOBOZ@

MI

Общее
Полное имя : D:ТоррентыEnglish.Dogs.2020.1080p.AMZN.WEBRip.DDP2.0.x264-CMAngliyskie.Psi.2020.XviD.WEB-DLRip-MediaBit.avi
Формат : AVI
Формат/Информация : Audio Video Interleave
Профиль формата : OpenDML
Размер файла : 1,37 Гбайт
Продолжительность : 1 ч. 25 м.
Общий поток : 2 310 Кбит/сек
Название фильма : English Dogs / (2020)
Программа кодирования : Lavf58.20.100
Видео
Идентификатор : 0
Формат : MPEG-4 Visual
Профиль формата : Advanced Simple@L5
Настройки формата : BVOP1 / Custom Matrix
Параметр BVOP формата : 1
Параметр QPel формата : Нет
Параметр GMC формата : Без точки перехода
Параметр матрицы формата : Выборочная
Идентификатор кодека : XVID
Идентификатор кодека/Подсказка : XviD
Продолжительность : 1 ч. 25 м.
Битрейт : 2 106 Кбит/сек
Ширина : 720 пикселей
Высота : 304 пикселя
Соотношение сторон : 2,35:1
Частота кадров : 23,976 (24000/1001) кадра/сек
Цветовое пространство : YUV
Субдискретизация насыщенности : 4:2:0
Битовая глубина : 8 бит
Тип развёртки : Прогрессивная
Метод сжатия : С потерями
Бит/(Пиксели*Кадры) : 0.401
Размер потока : 1,25 Гбайт (91%)
Заголовок : MediaBit
Библиотека кодирования : XviD 67
Аудио
Идентификатор : 1
Формат : AC-3
Формат/Информация : Audio Coding 3
Коммерческое название : Dolby Digital
Идентификатор кодека : 2000
Продолжительность : 1 ч. 25 м.
Вид битрейта : Постоянный
Битрейт : 192 Кбит/сек
Каналы : 2 канала
Channel layout : L R
Частота : 48,0 КГц
Частота кадров : 31,250 кадров/сек (1536 SPF)
Битовая глубина : 16 бит
Метод сжатия : С потерями
Размер потока : 117 Мбайт (8%)
Выравнивание : Соединение по промежуткам
Продолжительность промежутка : 32 мс. (0,77 видеокадр)
Заголовок : MVO [@MUZOBOZ@] MediaBit
Service kind : Complete Main

Скриншоты

Релиз от:
Профиль [ЛС]
Показать сообщения:    

Текущее время: 28-Сен 15:29

Часовой пояс: UTC ± 0



Вы не можете начинать темы
Вы не можете отвечать на сообщения
Вы не можете редактировать свои сообщения
Вы не можете удалять свои сообщения
Вы не можете голосовать в опросах
Вы не можете прикреплять файлы к сообщениям
Вы не можете скачивать файлы