Статистика раздачи
Нет
 
     
 
 

K15 ®

Пол:
Мужской
Стаж:
8 месяцев 5 дней
Сообщений:
146

Информация о фильме
Название: Легенда Пустыни
Оригинальное название: Da Mo Jiang Hu (Desert Legend)
Год выхода: 2020
Жанр: Боевые искусства, драма, исторический, комедия, фэнтези
Режиссер: Цзинь Лицзюнь
В ролях: Стивен Сунь, Чжоу Цзы Си, Ли Ли-Чунь
О фильме: Маленький кузнец Лю Сань Сы, мечтающий стать героем, сталкивается со своим кумиром доблестным героем Бай Ли У Ю и сопровождает с ним женщину из Стражей Запада Хэ Цин Ин. Однако Хэ Цин Ин рассказывает ему другую историю. Она утверждает, что на самом деле она доблестный человек, которого схватили Стражи Запада, а Бай Ли У Ю - прислужник, предавший правосудие! Лю Сань Сы должен тщательно отличить правду от лжи. Справедливость и зло трудно отличить. Теперь Лю Сань Сы считает, что мир полностью отличается от того, что он себе представлял...

Страна: Китай
Студия: Zhougeyingshi, Black Ant Film, Black Eyes, Migu, Feng Times Media
Продолжительность: 01:24:06
Перевод: Любительский двухголосый East Dream
Файл
Кодек: MPEG-4 AVC
Качество: WEBRip 1080p
Видео: MPEG-4 AVC, 2088 Кбит/с, 1920x1080, 24 кадр/с
Звук: АС3, 2 ch, 192 Кбит/с
Субтитры: Китайские (Вшитые)

МедиаИнфо

General
Unique ID : 205347708394363525518696244939232478544 (0x9A7C87B2108A1FC52F1D524AF5158550)
Complete name : G:ФільмиDesert.Legend.2020.WEBRip.1080p.AVC.AC3.East_Dream.mkv
Format : Matroska
Format version : Version 4
File size : 1.34 GiB
Duration : 1 h 24 min
Overall bit rate : 2 282 kb/s
Encoded date : UTC 2020-08-13 16:02:43
Writing application : mkvmerge v33.1.0 ('Primrose') 64-bit
Writing library : libebml v1.3.7 + libmatroska v1.5.0
Video
ID : 1
Format : AVC
Format/Info : Advanced Video Codec
Format profile : High@L4
Format settings : CABAC / 3 Ref Frames
Format settings, CABAC : Yes
Format settings, Reference frames : 3 frames
Codec ID : V_MPEG4/ISO/AVC
Duration : 1 h 24 min
Bit rate : 2 088 kb/s
Width : 1 920 pixels
Height : 1 080 pixels
Display aspect ratio : 16:9
Frame rate mode : Constant
Frame rate : 24.000 FPS
Color space : YUV
Chroma subsampling : 4:2:0
Bit depth : 8 bits
Scan type : Progressive
Bits/(Pixel*Frame) : 0.042
Stream size : 1.23 GiB (92%)
Default : Yes
Forced : No
Color range : Limited
Color primaries : BT.709
Transfer characteristics : BT.709
Matrix coefficients : BT.709
Audio
ID : 2
Format : AC-3
Format/Info : Audio Coding 3
Commercial name : Dolby Digital
Codec ID : A_AC3
Duration : 1 h 24 min
Bit rate mode : Constant
Bit rate : 192 kb/s
Channel(s) : 2 channels
Channel layout : L R
Sampling rate : 48.0 kHz
Frame rate : 31.250 FPS (1536 SPF)
Compression mode : Lossy
Stream size : 116 MiB (8%)
Service kind : Complete Main
Default : Yes
Forced : No

Скриншоты

Профиль [ЛС]
Показать сообщения:    

Текущее время: 28-Сен 15:35

Часовой пояс: UTC ± 0



Вы не можете начинать темы
Вы не можете отвечать на сообщения
Вы не можете редактировать свои сообщения
Вы не можете удалять свои сообщения
Вы не можете голосовать в опросах
Вы не можете прикреплять файлы к сообщениям
Вы не можете скачивать файлы