Статистика раздачи
Нет
 
     
 
 

K15 ®

Пол:
Мужской
Стаж:
8 месяцев 3 дня
Сообщений:
142

Информация о фильме
Название: Сила стихии
Оригинальное название: Force of Nature
Год выхода: 2020
Жанр: боевик, драма
Режиссер: Майкл Полиш
В ролях: Мэл Гибсон, Кейт Босворт, Эмиль Хирш, Дэвид Зайас, Стефани Кайо, Тайлер Джон Олсон, Уильям Кэтлетт, Джаспер Полиш, Свен Теммел, Джеси Маккинни, Рей Эрнандес, Лесли Эмметт, Анил Раман, Себастьян Васкес, Хулио Рамос Велес
О фильме: Детектив полиции в отставке во время урагана вместе с остальными жильцами оказывается в ловушке в многоэтажном здании. Там же группа опасных преступников планирует провернуть ограбление.

Выпущено: США / Emmett/Furla Films, FON Film Production, Force of Nature Film
Продолжительность: 01:34:43
Озвучивание: Дублированное | iTunes
Примечание: iTunes версия длиннее BD версии на ~ 4 минуты!
Файл
Формат: Matroska
Качество: WEB-DLRip-AVC | Расширенная версия
Видео: 960x402 at 24.00 fps, x264@L4.1, ~1370 kbps
Аудио: AC3, 6 ch, ~384 kbps - | Русский | -
Субтитры: Нет
***Релиз от: -=DoMiNo=-

M/I

x264 [info]: frame I:1130 Avg QP:17.25 size: 36439
x264 [info]: frame P:32918 Avg QP:18.81 size: 13914
x264 [info]: frame B:102336 Avg QP:21.71 size: 4634
General
Format : Matroska
Format version : Version 4
File size : 1.16 GiB
Duration : 1 h 34 min
Overall bit rate : 1 756 kb/s
Movie name : Сила стихии.(2020).WEB-DLRip-AVC.[-=DoMiNo=-]
Encoded date : UTC 2020-09-13 16:20:18
Writing application : mkvmerge v50.0.0 ('Awakenings') 64-bit
Writing library : libebml v1.4.0 + libmatroska v1.6.2
Cover : Yes
Attachments : Cover.jpg / Cover 2.jpg
Video
ID : 1
Format : AVC
Format/Info : Advanced Video Codec
Format profile : High@L4.1
Format settings : CABAC / 10 Ref Frames
Format settings, CABAC : Yes
Format settings, Reference : 10 frames
Codec ID : V_MPEG4/ISO/AVC
Duration : 1 h 34 min
Bit rate : 1 370 kb/s
Width : 960 pixels
Height : 402 pixels
Display aspect ratio : 2.40:1
Frame rate mode : Constant
Frame rate : 24.000 FPS
Color space : YUV
Chroma subsampling : 4:2:0
Bit depth : 8 bits
Scan type : Progressive
Bits/(Pixel*Frame) : 0.148
Stream size : 928 MiB (78%)
Title : -=DoMiNo=-
Writing library : x264 core 161 r3018 db0d417
Encoding settings : cabac=1 / ref=10 / deblock=1:-3:-3 / analyse=0x3:0x133 / me=umh / subme=10 / psy=1 / psy_rd=1.00:0.00 / mixed_ref=1 / me_range=32 / chroma_me=1 / trellis=2 / 8x8dct=1 / cqm=0 / deadzone=21,11 / fast_pskip=0 / chroma_qp_offset=-2 / threads=6 / lookahead_threads=1 / sliced_threads=0 / nr=0 / decimate=1 / interlaced=0 / bluray_compat=0 / constrained_intra=0 / bframes=12 / b_pyramid=2 / b_adapt=2 / b_bias=0 / direct=1 / weightb=1 / open_gop=0 / weightp=2 / keyint=250 / keyint_min=24 / scenecut=40 / intra_refresh=0 / rc_lookahead=60 / rc=crf / mbtree=0 / crf=19.5 / qcomp=0.60 / qpmin=0 / qpmax=69 / qpstep=4 / vbv_maxrate=50000 / vbv_bufsize=62500 / crf_max=0.0 / nal_hrd=none / filler=0 / ip_ratio=1.40 / pb_ratio=1.30 / aq=2:1.00
Language : English
Default : Yes
Forced : No
Color range : Limited
Color primaries : BT.709
Transfer characteristics : BT.709
Matrix coefficients : BT.709
Audio
ID : 2
Format : AC-3
Format/Info : Audio Coding 3
Commercial name : Dolby Digital
Codec ID : A_AC3
Duration : 1 h 34 min
Bit rate mode : Constant
Bit rate : 384 kb/s
Channel(s) : 6 channels
Channel layout : L R C LFE Ls Rs
Sampling rate : 48.0 kHz
Frame rate : 31.250 FPS (1536 SPF)
Compression mode : Lossy
Stream size : 260 MiB (22%)
Title : DUB
Language : Russian
Service kind : Complete Main
Default : Yes
Forced : No
Menu
00:00:00.000 : en:Глава 1
00:09:00.833 : en:Глава 2
00:17:30.499 : en:Глава 3
00:26:29.915 : en:Глава 4
00:35:09.873 : en:Глава 5
00:43:25.831 : en:Глава 6
00:51:58.122 : en:Глава 7
01:00:26.538 : en:Глава 8
01:08:35.121 : en:Глава 9
01:17:09.246 : en:Глава 10
01:25:45.204 : en:Глава 11
Профиль [ЛС]
Показать сообщения:    

Текущее время: 26-Сен 13:54

Часовой пояс: UTC ± 0



Вы не можете начинать темы
Вы не можете отвечать на сообщения
Вы не можете редактировать свои сообщения
Вы не можете удалять свои сообщения
Вы не можете голосовать в опросах
Вы не можете прикреплять файлы к сообщениям
Вы не можете скачивать файлы