Статистика раздачи
Размер:  1,13 GB   |    Зарегистрирован:  1 год   |    Скачан:  0 раз
DL-List: Нет

Полного источника не было: Никогда

 
     
 
 

Гость ®

Пол:
Не указан

Перевал-Страна: СССР
Студия: Союзмультфильм
Жанр: мультфильм, фантастика
Год выпуска: 1988
Продолжительность: 00:29:57-Режиссер: Владимир Тарасов
Роли озвучивали: Александр Кайдановский, Василий Ливанов, Александр Пашутин, Г. Семенихин, А. Горенбейн
Композитор: Александр Градский-Описание: Космический корабль терпит крушение на неизвестной планете. Его пассажиры живут в отрыве от Земли и пытаются вернуться к кораблю, чтобы подать сигнал SOS.-Релиз: -Семпл: http://sendfile.su/1503103-Тип релиза: DVDRip-AVC
Контейнер: MKV
Видео: 716x576 (4:3) @ 764x576, 25.000 fps, AVC, ~4388 Kbps, 0.426 bits/pixel
Аудио 1: Русский, 48.0 KHz, AC3, 6 ch, 448 Kbps - 5.1-mix | "Крупный план"
Аудио 2: Русский, 48.0 KHz, AC3, 1 ch, 448 Kbps - Mono mix | "Крупный план"
Субтитры: английские, киргизские

MediaInfo

General
Unique ID : 43922520051290691518665395953794269577 (0x210B2B6ED603465547B4418D6D1BC189)
Complete name : Перевал.1988.DVDRip-RUTRACKER.mkv
Format : Matroska
Format version : Version 4
File size : 1.13 GiB
Duration : 29 min 57 s
Overall bit rate : 5 391 kb/s
Movie name : Перевал.1988.DVDRip-RUTRACKER
Encoded date : UTC 2019-06-28 18:37:48
Writing application : mkvmerge v35.0.0 ('All The Love In The World') 64-bit
Writing library : libebml v1.3.9 + libmatroska v1.5.2
Video
ID : 1
Format : AVC
Format/Info : Advanced Video Codec
Format profile : High@L4.1
Format settings : CABAC / 16 Ref Frames
Format settings, CABAC : Yes
Format settings, Reference frames : 16 frames
Codec ID : V_MPEG4/ISO/AVC
Duration : 29 min 57 s
Bit rate : 4 388 kb/s
Width : 716 pixels
Height : 576 pixels
Display aspect ratio : 4:3
Frame rate mode : Constant
Frame rate : 25.000 FPS
Color space : YUV
Chroma subsampling : 4:2:0
Bit depth : 8 bits
Scan type : Progressive
Bits/(Pixel*Frame) : 0.426
Stream size : 940 MiB (81%)
Writing library : x264 core 152 r2851kMod ba24899
Encoding settings : cabac=1 / ref=16 / deblock=1:-3:-3 / analyse=0x3:0x133 / me=umh / subme=11 / psy=1 / fade_compensate=0.00 / psy_rd=1.00:0.00 / mixed_ref=1 / me_range=48 / chroma_me=1 / trellis=2 / 8x8dct=1 / cqm=0 / deadzone=21,11 / fast_pskip=0 / chroma_qp_offset=-2 / threads=12 / lookahead_threads=3 / sliced_threads=0 / nr=0 / decimate=1 / interlaced=0 / bluray_compat=0 / constrained_intra=0 / bframes=16 / b_pyramid=2 / b_adapt=2 / b_bias=0 / direct=3 / weightb=1 / open_gop=0 / weightp=0 / keyint=250 / keyint_min=25 / scenecut=40 / intra_refresh=0 / rc_lookahead=70 / rc=crf / mbtree=0 / crf=17.0000 / qcomp=0.60 / qpmin=0 / qpmax=69 / qpstep=4 / vbv_maxrate=50000 / vbv_bufsize=62500 / crf_max=0.0 / nal_hrd=none / filler=0 / ip_ratio=1.40 / pb_ratio=1.30 / aq=3:0.75
Language : Russian
Default : Yes
Forced : No
Color range : Limited
Color primaries : BT.601 PAL
Transfer characteristics : BT.470 System B/G
Matrix coefficients : BT.470 System B/G
Audio #1
ID : 2
Format : AC-3
Format/Info : Audio Coding 3
Commercial name : Dolby Digital
Codec ID : A_AC3
Duration : 29 min 57 s
Bit rate mode : Constant
Bit rate : 448 kb/s
Channel(s) : 6 channels
Channel layout : L R C LFE Ls Rs
Sampling rate : 48.0 kHz
Frame rate : 31.250 FPS (1536 SPF)
Bit depth : 16 bits
Compression mode : Lossy
Stream size : 96.0 MiB (8%)
Title : 5.1-mix | "Крупный план"
Language : Russian
Service kind : Complete Main
Default : Yes
Forced : No
Audio #2
ID : 3
Format : AC-3
Format/Info : Audio Coding 3
Commercial name : Dolby Digital
Codec ID : A_AC3
Duration : 29 min 57 s
Bit rate mode : Constant
Bit rate : 448 kb/s
Channel(s) : 1 channel
Channel layout : C
Sampling rate : 48.0 kHz
Frame rate : 31.250 FPS (1536 SPF)
Bit depth : 16 bits
Compression mode : Lossy
Stream size : 96.0 MiB (8%)
Title : Mono mix | "Крупный план"
Language : Russian
Service kind : Complete Main
Default : No
Forced : No
Text #1
ID : 4
Format : UTF-8
Codec ID : S_TEXT/UTF8
Codec ID/Info : UTF-8 Plain Text
Language : English
Default : No
Forced : No
Text #2
ID : 5
Format : UTF-8
Codec ID : S_TEXT/UTF8
Codec ID/Info : UTF-8 Plain Text
Language : Kirghiz
Default : No
Forced : No
Menu
00:00:00.000 : :01
00:06:22.200 : :02
00:14:04.240 : :03
00:17:55.640 : :04
00:20:14.520 : :05

Скриншоты

Release Info

x264.log

x264 [info]: 716x576p 16:15 @ 25/1 fps (cfr)
x264 [info]: using SAR=16/15
x264 [info]: using cpu capabilities: MMX2 SSE2Fast SSSE3 SSE4.2 AVX
x264 [info]: profile High, level 4.1
x264 [info]: cabac=1 ref=16 deblock=1:-3:-3 analyse=0x3:0x133 me=umh subme=11 psy=1 fade_compensate=0.00 psy_rd=1.00:0.00 mixed_ref=1 me_range=48 chroma_me=1 trellis=2 8x8dct=1 cqm=0 deadzone=21,11 fast_pskip=0 chroma_qp_offset=-2 threads=12 lookahead_threads=3 sliced_threads=0 nr=0 decimate=1 interlaced=0 bluray_compat=0 constrained_intra=0 bframes=16 b_pyramid=2 b_adapt=2 b_bias=0 direct=3 weightb=1 open_gop=0 weightp=0 keyint=250 keyint_min=25 scenecut=40 intra_refresh=0 rc_lookahead=70 rc=crf mbtree=0 crf=17.0000 qcomp=0.60 qpmin=0 qpmax=69 qpstep=4 vbv_maxrate=50000 vbv_bufsize=62500 crf_max=0.0 nal_hrd=none filler=0 ip_ratio=1.40 pb_ratio=1.30 aq=3:0.75
x264 [info]: frame I:276 Avg QP:19.58 size: 59557
x264 [info]: frame P:11114 Avg QP:21.34 size: 35598
x264 [info]: frame B:33550 Avg QP:23.96 size: 17833
x264 [info]: consecutive B-frames: 2.7% 5.1% 22.3% 18.3% 7.6% 33.0% 0.9% 0.9% 1.1% 5.4% 0.4% 1.1% 0.1% 0.3% 0.0% 0.2% 0.5%
x264 [info]: mb I I16..4: 4.6% 85.8% 9.6%
x264 [info]: mb P I16..4: 1.1% 31.4% 1.2% P16..4: 24.7% 22.7% 13.3% 1.0% 0.1% skip: 4.6%
x264 [info]: mb B I16..4: 0.4% 9.0% 0.2% B16..8: 40.9% 20.1% 4.4% direct:11.0% skip:14.0% L0:39.0% L1:32.3% BI:28.7%
x264 [info]: 8x8 transform intra:93.3% inter:83.0%
x264 [info]: direct mvs spatial:99.8% temporal:0.2%
x264 [info]: coded y,uvDC,uvAC intra: 89.3% 80.6% 47.3% inter: 53.2% 35.6% 10.6%
x264 [info]: i16 v,h,dc,p: 37% 20% 29% 14%
x264 [info]: i8 v,h,dc,ddl,ddr,vr,hd,vl,hu: 12% 10% 29% 7% 7% 7% 7% 9% 12%
x264 [info]: i4 v,h,dc,ddl,ddr,vr,hd,vl,hu: 19% 11% 18% 7% 10% 10% 9% 8% 10%
x264 [info]: i8c dc,h,v,p: 29% 35% 25% 11%
x264 [info]: ref P L0: 54.3% 15.9% 6.8% 4.5% 3.0% 3.0% 2.2% 1.8% 1.4% 1.4% 1.2% 1.3% 1.0% 1.1% 1.0% 0.0%
x264 [info]: ref B L0: 72.9% 12.8% 4.4% 2.3% 1.5% 1.3% 1.0% 0.8% 0.6% 0.6% 0.5% 0.5% 0.4% 0.3% 0.1%
x264 [info]: ref B L1: 95.2% 4.8%
x264 [info]: kb/s:4496.57
x264 [info]: encoded 44940 frames, 8.89 fps, 4496.57 kb/s, duration 1:24:17.17
Source | xfiles | Azyan | Skazhutin-

[relizov.net].t4020.torrent 
Торрент: Зарегистрирован [ 2019-06-29 16:16 ] · 6F874009F104E92491F7022523A440C3CFCACE9E

Скачать .torrent

Скачать

12 KB

Статус: проверено
Скачан: 0 раз
Размер: 1,13 GB  ·  Тип торрента
terms.php
Показать сообщения:    

Текущее время: 13-Июл 07:07

Часовой пояс: UTC ± 0



Вы не можете начинать темы
Вы не можете отвечать на сообщения
Вы не можете редактировать свои сообщения
Вы не можете удалять свои сообщения
Вы не можете голосовать в опросах
Вы не можете прикреплять файлы к сообщениям
Вы можете скачивать файлы