Гость ®

Пол:
Не указан

Рождественский подарок Диснея / A Disney Christmas gift
Страна: США
Жанр: Анимация
Продолжительность: 00:42:52
Год выпуска: 1982
Перевод: Профессиональный (дублированный) РТР
Русские субтитры: нет
Описание: Рождественский подарок Диснея - Рождественский выпуск, который транслировался на телеканале РТР. Специальный Рождественский выпуск представляет собой несколько короткометражных мультфильмов Диснея, объединеных в едином монтаже, он включает в себя фрагменты следующих мультфильмов:
"Once Upon a Wintertime" - Melody Time (1948)
"Pluto's Christmas Tree" - Mickey Mouse, Pluto and Chip 'n Dale (1951)
Bambi and Thumper - Bambi (1942)
Peter Pan and the Darling children - Peter Pan (1953)
"The Clock Watcher" - Donald Duck (1945)
Cinderella and Fairy Godmother - Cinderella (1950)
"The Night Before Christmas" - Silly Symphonies (1933)
Доп. информация: ФИЛЬМ ИЗ РУБРИКИ ДИСНЕЙ ПО ПЯТНИЦАМ http://cybertorrent.ru/forum/viewtopic.php?t=1302557
http://cyclowiki.org/wiki/%D0%94%D0%B8%D1%81%D0%BD%D0%B5%D0%B9_%D0%BF%D0%BE_%D0%B...1%86%D0%B0%D0%BC
За мультфильм благодарим хорошего человека по имени KinoprojectionisT

Релиз
Качество: VHSRip
Формат: MPG
Видео: MPEG2 Video 720x576 (4:3) 25fps 5073 Kbps
Аудио: MPEG Audio 48000Hz stereo 224kbps
Субтитры: отсутствуют

Подробные технические данные

Рождественский подарок Диснея.mpg
Format : MPEG-PS
File size : 1.62 GiB
Duration : 42mn 51s
Overall bit rate mode : Variable
Overall bit rate : 5 405 Kbps
Writing library : Created with Nero
Video
ID : 224 (0xE0)
Format : MPEG Video
Format version : Version 2
Format profile : Main@Main
Format settings, BVOP : No
Format settings, Matrix : Default
Format settings, GOP : M=3, N=15
Duration : 42mn 51s
Bit rate mode : Variable
Bit rate : 5 073 Kbps
Maximum bit rate : 9 610 Kbps
Width : 720 pixels
Height : 576 pixels
Display aspect ratio : 4:3
Frame rate : 25.000 fps
Standard : PAL
Color space : YUV
Chroma subsampling : 4:2:0
Bit depth : 8 bits
Scan type : Interlaced
Scan order : Top Field First
Compression mode : Lossy
Bits/(Pixel*Frame) : 0.489
Time code of first frame : 00:00:00:00
Time code source : Group of pictures header
Stream size : 1.52 GiB (94%)
Writing library : Ahead Nero
Audio
ID : 192 (0xC0)
Format : MPEG Audio
Format version : Version 1
Format profile : Layer 2
Duration : 42mn 51s
Bit rate mode : Constant
Bit rate : 224 Kbps
Channel count : 2 channels
Sampling rate : 48.0 KHz
Compression mode : Lossy
Delay relative to video : 24ms
Stream size : 68.7 MiB (4%)

Скриншоты


Показать сообщения:    

Текущее время: 02-Апр 10:06

Часовой пояс: UTC ± 0



Вы не можете начинать темы
Вы не можете отвечать на сообщения
Вы не можете редактировать свои сообщения
Вы не можете удалять свои сообщения
Вы не можете голосовать в опросах
Вы не можете прикреплять файлы к сообщениям
Вы не можете скачивать файлы